<?xml version="1.0" standalone="no"?>
<!DOCTYPE svg PUBLIC "-//W3C//DTD SVG 1.1//EN" "http://www.w3.org/Graphics/SVG/1.1/DTD/svg11.dtd">
<svg xmlns="http://www.w3.org/2000/svg">
<metadata>Generated by Fontastic.me</metadata>
<defs>
<font id="full" horiz-adv-x="512">
<font-face font-family="full" units-per-em="512" ascent="480" descent="-32"/>
<missing-glyph horiz-adv-x="512" />

<glyph unicode="&#98;" d="M469 256c0 24-19 43-42 43l-107 0c-4 0-7 1-9 4c-2 3-3 7-1 10c7 18 10 36 10 54l0 81c0 35-29 64-64 64c-35 0-64-29-64-64l0-81c0-18 4-36 10-54c2-3 1-7-1-10c-2-3-5-4-9-4l-107 0c-23 0-42-19-42-43l0-85l21 0l0-160c0-6 5-11 11-11l53 0c4 0 8 2 10 6l22 45l0-40c0-3 1-6 3-8c2-2 5-3 8-3l266 0c6 0 11 5 11 11l0 160l21 0z m-42-235l-22 0l0 96c0 6-4 11-10 11c-6 0-11-5-11-11l0-96l-21 0l0 75c0 6-5 11-11 11c-6 0-11-5-11-11l0-75l-21 0l0 43c0 6-5 11-11 11c-6 0-10-5-10-11l0-43l-118 0l0 75c0 5-3 9-8 10c-5 1-10-1-12-5l-40-80l-36 0l0 150l342 0z m21 171l-384 0l0 64c0 12 10 21 21 21l107 0c11 0 21 6 27 14c6 9 7 20 3 30c-6 15-9 30-9 46l0 81c0 24 19 43 43 43c24 0 43-19 43-43l0-81c0-16-3-31-9-46c-4-10-3-21 3-30c6-8 16-14 27-14l107 0c11 0 21-9 21-21z m-171 256c0-12-9-21-21-21c-12 0-21 9-21 21c0 12 9 21 21 21c12 0 21-9 21-21z"/>
<glyph unicode="&#97;" d="M405 320l-32 0l0 75c0 64-52 117-117 117c-65 0-117-53-117-117l0-75l-32 0c-59 0-107-48-107-107l0-138c0-41 33-75 75-75l362 0c42 0 75 34 75 75l0 138c0 59-48 107-107 107z m-245 75c0 53 43 96 96 96c53 0 96-43 96-96l0-75l-192 0z m-53-96l32 0l0-32c0-6 4-11 10-11c6 0 11 5 11 11l0 32l192 0l0-32c0-6 5-11 11-11c6 0 10 5 10 11l0 32l32 0c47 0 86-39 86-86l0-86c-57-5-101-49-106-106l-258 0c-5 57-49 101-106 106l0 86c0 47 39 86 86 86z m-86-224l0 31c45-5 80-40 85-85l-31 0c-30 0-54 24-54 54z m416-54l-31 0c5 45 40 80 85 85l0-31c0-30-24-54-54-54z m-384 171l32 0l0-32c0-6 5-11 11-11c6 0 11 5 11 11l0 32l352 0c6 0 10 5 10 11c0 6-4 10-10 10l-406 0c-6 0-10-4-10-10c0-6 4-11 10-11z"/>
<glyph unicode="&#98;" d="M235 224c0 6-5 11-11 11l-43 0c-6 0-10-5-10-11c0-6 4-11 10-11l43 0c6 0 11 5 11 11z m-139 75l192 0c6 0 11 4 11 10c0 6-5 11-11 11l-192 0c-6 0-11-5-11-11c0-6 5-10 11-10z m245-42c60 5 107 55 107 116c0 61-47 112-107 117l0 11c0 6-4 11-10 11c-6 0-11-5-11-11l0-224l-245 0c-6 0-11-4-11-10c0-53 30-99 74-123l-21-132c0-6 4-11 9-12c1 0 1 0 2 0c5 0 10 4 11 9l11 76l98 0l0-4c-14-7-24-21-24-38c0-24 19-43 43-43c23 0 42 19 42 43c0 22-17 41-40 42l-2 59c41 22 70 64 74 113z m86 116c0-49-38-90-86-95l0 191c48-6 86-46 86-96z m-341-117l234 0c-6-60-56-107-117-107c-61 0-112 47-117 107z m202-213c0-12-10-22-21-22c-12 0-22 10-22 22c0 11 10 21 22 21c11 0 21-10 21-21z m-41 64l-94 0l5 29c14-5 29-8 45-8c15 0 29 3 43 7z"/>
<glyph unicode="&#99;" d="M469 512l-394 0c-6 0-11-5-11-11l0-213c0-6 5-11 11-11l32 0l0-53l-11 0c-6 0-11-5-11-11l0-10l-74 0c-6 0-11-5-11-11c0-6 5-11 11-11l74 0l0-10c0-6 5-11 11-11l32 0l0-11c0-6 5-10 11-10c6 0 10 4 10 10l0 11l32 0c6 0 11 5 11 11l0 42c0 6-5 11-11 11l-10 0l0 53l42 0l0-192l-202 0c-6 0-11-4-11-10l0-64c0-6 5-11 11-11l469 0c6 0 10 4 11 10l21 225l0 234c0 24-19 43-43 43z m-298-331l-64 0l0 22l64 0z m-22 43l-21 0l0 53l21 0z m-128-160l203 0c6 0 11 5 11 11l0 213c0 6-5 11-11 11l-139 0l0 192l384 0c12 0 22-10 22-22l0-64l-118 0c-6 0-10-4-10-10c0-6 4-11 10-11l118 0l0-21l-118 0c-6 0-10-5-10-11c0-6 4-11 10-11l118 0l0-21l-118 0c-6 0-10-5-10-11c0-6 4-10 10-10l118 0l0-43l-96 0c-6 0-11-5-11-11l0-224l-363 0z m449-43l-65 0l0 214l86 0z m-321 448c-23 0-42-19-42-42c0-24 19-43 42-43c24 0 43 19 43 43c0 23-19 42-43 42z m0-64c-11 0-21 10-21 22c0 11 10 21 21 21c12 0 22-10 22-21c0-12-10-22-22-22z"/>
<glyph unicode="&#100;" d="M405 427c-17 0-32-15-32-32c0-18-14-32-32-32c-17 0-32 14-32 32c0 35-28 64-64 64c-35 0-64-29-64-64l0-22l-32 0c-6 0-10-4-10-10l0-30c-70-23-118-89-118-162c0-94 77-171 171-171c94 0 171 77 171 171c0 73-48 139-118 162l0 30c0 6-4 10-10 10l-32 0l0 22c0 23 19 42 42 42c24 0 43-19 43-42c0-30 24-54 53-54c30 0 54 24 54 54c0 6 4 10 10 10c6 0 11 5 11 11c0 6-5 11-11 11z m-173-113c64-17 109-76 109-143c0-83-67-150-149-150c-82 0-149 67-149 150c0 67 45 126 109 143c5 2 8 6 8 11l0 27l64 0l0-27c0-5 3-9 8-11z m173 198c-6 0-10-5-10-11l0-42c0-6 4-11 10-11c6 0 11 5 11 11l0 42c0 6-5 11-11 11z m31-77c2 0 5 2 7 4l30 30c4 4 4 11 0 15c-4 4-11 4-15 0l-30-30c-4-4-4-11 0-15c2-2 5-4 8-4z m-68 4c2-2 4-4 7-4c3 0 6 2 8 4c4 4 4 11 0 15l-30 30c-5 4-11 4-16 0c-4-4-4-11 0-15z m123-12l-43 0c-6 0-11-5-11-11c0-6 5-11 11-11l43 0c6 0 10 5 10 11c0 6-4 11-10 11z m-48-34c-4 5-11 5-15 0c-4-4-4-11 0-15l30-30c2-2 5-3 8-3c2 0 5 1 7 3c4 4 4 11 0 15z m-324-117c-28-20-47-49-53-83c-6-33 1-67 21-96c2-3 5-4 9-4c2 0 4 1 6 2c5 3 6 10 3 15c-34 48-22 115 26 148c5 4 6 10 3 15c-4 5-10 6-15 3z"/>
<glyph unicode="&#101;" d="M384 0l-256 0c-6 0-10 4-11 10l-20 268c-43 5-76 41-76 85c0 47 40 87 86 87c10 0 19-2 28-6c15 41 62 68 121 68c56 0 95-23 119-69c9 4 20 7 30 7c46 0 86-40 86-87c0-44-33-80-76-85l-20-268c-1-6-5-10-11-10z m-246 21l236 0l21 268c0 5 5 10 10 10c36 0 64 28 64 64c0 38-34 65-64 65c-10 0-20-3-29-8c-3-2-6-3-9-2c-3 1-5 3-7 6c-20 46-53 67-104 67c-55 0-97-26-104-64c0-4-3-7-6-8c-3-2-7-1-10 1c-9 5-19 8-29 8c-30 0-64-27-64-65c0-36 28-64 64-64c5 0 10-5 10-10z m253 64l-270 0c-6 0-10 5-10 11c0 6 4 11 10 11l270 0c6 0 10-5 10-11c0-6-4-11-10-11z m-188 0c-6 0-11 5-11 11l0 85c0 6 5 11 11 11c6 0 10-5 10-11l0-85c0-6-4-11-10-11z m53 0c-6 0-11 5-11 11l0 107c0 6 5 10 11 10c6 0 11-4 11-10l0-107c0-6-5-11-11-11z m53 0c-6 0-10 5-10 11l0 85c0 6 4 11 10 11c6 0 11-5 11-11l0-85c0-6-5-11-11-11z"/>
<glyph unicode="&#102;" d="M405 171l-298 0c-59 0-107 48-107 106c0 6 5 11 11 11c6 0 10-5 10-11c0-47 39-85 86-85l298 0c47 0 86 38 86 85c0 6 4 11 10 11c6 0 11-5 11-11c0-58-48-106-107-106z m11 64l-320 0c-6 0-11 4-11 10c0 6 5 11 11 11l320 0c6 0 11-5 11-11c0-6-5-10-11-10z m11-53l-22 0l0 159c0 83-67 150-149 150c-82 0-149-67-149-150l0-159l-22 0l0 159c0 94 77 171 171 171c94 0 171-77 171-171z m-139-139l-64 0l-21-43l106 0z"/>
<glyph unicode="&#103;" d="M277 245l-149 0c-24 0-43-19-43-42c0-24 19-43 43-43c24 0 43 19 43 43c0 7-3 15-6 21l76 0c-4-6-6-14-6-21c0-24 19-43 42-43c24 0 43 19 43 43c0 23-19 42-43 42z m-128-42c0-12-9-22-21-22c-12 0-21 10-21 22c0 11 9 21 21 21c12 0 21-10 21-21z m128-22c-11 0-21 10-21 22c0 11 10 21 21 21c12 0 22-10 22-21c0-12-10-22-22-22z m225 108c-6 4-14 5-21 2l-97-40l0 58c0 18-14 32-32 32l-11 0l0 54c0 6 5 10 11 10l34 0c4-12 16-21 30-21l64 0c18 0 32 14 32 32c0 18-14 32-32 32l-64 0c-14 0-26-9-30-21l-34 0c-18 0-32-15-32-32l0-54l-64 0l0 32c0 18-14 32-32 32l-213 0c-6 0-11-4-11-10c0-6 5-11 11-11l213 0c6 0 11-5 11-11l0-32l-182 0c-17 0-32-14-32-32l0-192c0-17 15-32 32-32l299 0c18 0 32 15 32 32l0 38l97-41c3-1 6-2 9-2c4 0 8 2 12 4c6 4 10 11 10 19l0 136c0 7-4 14-10 18z m-86 138l64 0c6 0 11-5 11-11c0-6-5-11-11-11l-64 0c-6 0-11 5-11 11c0 6 5 11 11 11z m-64-320l-299 0c-6 0-10 4-10 10l0 192c0 6 4 11 10 11l299 0c6 0 11-5 11-11l0-74c0 0 0 0 0 0l0-64c0 0 0 0 0 0l0-54c0-6-5-10-11-10z m139 28l-1-1l-106 44l0 50l106 44l-5 9l6-10z"/>
<glyph unicode="&#104;" d="M96 192c-29 0-53-24-53-53c0-30 24-54 53-54c29 0 53 24 53 54c0 29-24 53-53 53z m0-85c-18 0-32 14-32 32c0 17 14 32 32 32c18 0 32-15 32-32c0-18-14-32-32-32z m125-10c5-2 11 1 13 6l19 57l27 0l19-57c2-4 6-7 10-7c1 0 3 0 4 1c5 1 8 7 6 13l-21 64c-1 4-5 7-10 7l-43 0c-4 0-8-3-10-7l-21-64c-2-6 1-12 7-13z m-50 351l21 0l0-107l-21 0z m42 0l22 0l0-107l-22 0z m43 0l21 0l0-107l-21 0z m43 0l21 0l0-107l-21 0z m42 0l22 0l0-107l-22 0z m43-341l85 0l0 64l-85 0z m21 42l43 0l0-21l-43 0z m32 86l-74 0l0 21l-22 0l0 43l11 0c29 0 53 24 53 53l0 139l-277 0l0-139c0-29 24-53 53-53l11 0l0-43l-21 0l0-21l-96 0c-42 0-75-34-75-75l0-43c0-41 33-74 75-74l96 0l0-22l192 0l0 22l74 0c42 0 75 33 75 74l0 43c0 41-33 75-75 75z m-288 117l0 117l235 0l0-117c0-18-14-32-32-32l-171 0c-17 0-32 14-32 32z m64-53l107 0l0-43l-107 0z m-138-235c-30 0-54 24-54 53l0 43c0 29 24 53 54 53l96 0l0-149z m266-21l-149 0l0 192l149 0z m150 74c0-29-24-53-54-53l-74 0l0 149l74 0c30 0 54-24 54-53z"/>
<glyph unicode="&#97;" d="M459 256c-14 0-28-4-39-10l16 106c6 40-6 81-32 112c-26 30-65 48-105 48l-86 0c-40 0-79-18-105-48c-26-31-38-72-32-112l16-106c-11 6-25 10-39 10c-29 0-53-24-53-53c0-22 13-41 33-50c6-2 10-8 10-14l0-43c0-41 33-75 74-75l0-10c0-6 5-11 11-11c6 0 11 5 11 11l0 10l234 0l0-10c0-6 5-11 11-11c6 0 11 5 11 11l0 10c41 0 74 34 74 75l0 43c0 6 4 12 10 14c20 9 33 28 33 50c0 29-24 53-53 53z m-335 194c22 26 55 41 89 41l86 0c34 0 67-15 89-41c22-26 32-61 27-94l-20-129c-13-15-22-35-22-56l0-16c-19 7-55 16-117 16c-62 0-98-9-117-16l0 16c0 21-9 41-22 56l-20 128c-5 34 5 69 27 95z m347-277c-14-6-23-19-23-34l0-43c0-29-24-53-53-53l-278 0c-29 0-53 24-53 53l0 43c0 15-9 28-23 34c-12 5-20 17-20 30c0 17 15 32 32 32c36 0 64-29 64-64l0-52l17 11c0 0 32 19 122 19c90 0 122-19 122-19l17-11l0 52c0 35 28 64 64 64c17 0 32-15 32-32c0-13-8-25-20-30z m-276 118c2-2 5-3 8-3c2 0 5 1 7 3l9 9c7-14 21-23 37-23c16 0 30 9 37 23l9-9c2-2 5-3 7-3c3 0 6 1 8 3c4 4 4 11 0 15l-14 14l14 14c4 4 4 11 0 15c-4 4-11 4-15 0l-9-9c-7 14-21 23-37 23c-16 0-30-9-37-23l-9 9c-4 4-11 4-15 0c-4-4-4-11 0-15l14-14l-14-14c-4-4-4-11 0-15z m61 50c12 0 21-9 21-21c0 0 0 0 0 0c0-12-9-21-21-21c-12 0-21 9-21 21c0 0 0 0 0 0c0 12 9 21 21 21z"/>
<glyph unicode="&#98;" d="M459 437l0 54c0 0-161-50-93-131l-25-25c-34 30-78 49-128 49c-106 0-192-86-192-192c0-49 19-94 49-128c0 0 0 0 0 0l-46-46c-4-4-4-11 0-15c3-2 5-3 8-3c3 0 5 1 8 3l45 46c0 0 0 0 0 0c34-30 79-49 128-49c50 0 94 19 128 49c0 0 0 0 1 0l45-46c2-2 5-3 8-3c2 0 5 1 7 3c4 4 4 11 0 15l-45 46c0 0-1 0-1 0c31 34 49 79 49 128c0 49-18 94-49 128l25 25c14-12 27-17 40-17c57 0 91 109 91 109z m-22 0l0-6l-21-21l0 39c7 4 14 7 21 11z m-66-32c3 10 12 20 24 30l0-47l-14-13c-13 16-10 26-10 30z m13-213c0-94-77-171-171-171c-94 0-170 77-170 171c0 94 76 171 170 171c44 0 83-17 113-43l-30-30c-22 19-51 30-83 30c-70 0-128-57-128-128c0-71 58-128 128-128c71 0 128 57 128 128c0 32-11 60-30 83l30 30c27-30 43-70 43-113z m-128 0c0-24-19-43-43-43c-23 0-42 19-42 43c0 24 19 43 42 43c8 0 16-3 22-6l-16-16c-2 0-4 0-6 0c-11 0-21-9-21-21c0-12 10-21 21-21c12 0 22 9 22 21c0 2-1 4-1 5l16 17c4-7 6-14 6-22z m-6 52c-10 8-23 12-37 12c-35 0-64-29-64-64c0-35 29-64 64-64c36 0 64 29 64 64c0 14-4 27-12 37l31 30c15-18 24-41 24-67c0-59-48-107-107-107c-58 0-106 48-106 107c0 59 48 107 106 107c26 0 49-9 68-24z m171 105c-8 0-16 4-25 11l56 56l29 0c-14-31-37-67-60-67z"/>
<glyph unicode="&#99;" d="M416 171l-21 0l0 87c12 4 21 16 21 30l0 128c0 29-24 53-53 53l0 32c0 6-5 11-11 11l-64 0c-6 0-11-5-11-11l0-32l-64 0l0 32c0 6-4 11-10 11l-64 0c-6 0-11-5-11-11l0-32c-29 0-53-24-53-53l0-128c0-14 9-26 21-30l0-87l-21 0c-24 0-43-19-43-43l0-96c0-18 14-32 32-32l363 0c17 0 32 14 32 32l0 96c0 24-19 43-43 43z m21-43l0-21l-42 0l0 42l21 0c12 0 21-9 21-21z m-106-21l-22 0l0 10c0 6-4 11-10 11c-6 0-11-5-11-11l0-10l-85 0l0 10c0 6-5 11-11 11c-6 0-11-5-11-11l0-10l-21 0l0 21c0 12 10 21 21 21l128 0c12 0 22-9 22-21z m-171-22l21 0l0-10c0-6 5-11 11-11c6 0 11 5 11 11l0 10l85 0l0-10c0-6 5-11 11-11c6 0 10 5 10 11l0 10l22 0l0-64l-171 0z m192 11l0 32c0 24-19 43-43 43l-128 0c-23 0-42-19-42-43l0-107l-22 0l0 235l22 0l0-21c0-18 14-32 32-32c17 0 32 14 32 32l0 21l85 0l0-21c0-18 14-32 32-32c18 0 32 14 32 32l0 21l21 0l0-235l-21 0z m-192 139l0 53c0 6 5 11 11 11c6 0 10-5 10-11l0-53c0-6-4-11-10-11c-6 0-11 5-11 11z m149 0l0 53c0 6 5 11 11 11c6 0 11-5 11-11l0-53c0-6-5-11-11-11c-6 0-11 5-11 11z m-10 256l42 0l0-22l-42 0z m-150 0l43 0l0-22l-43 0z m-53-75c0 18 14 32 32 32l235 0c17 0 32-14 32-32l0-128c0-6-5-11-11-11l-32 0l0 11c0 18-14 32-32 32c-18 0-32-14-32-32l0-11l-85 0l0 11c0 18-15 32-32 32c-18 0-32-14-32-32l0-11l-32 0c-6 0-11 5-11 11z m-43-288c0 12 10 21 22 21l21 0l0-42l-43 0z m0-96l0 53l43 0l0-64l-32 0c-6 0-11 5-11 11z m384 0c0-6-4-11-10-11l-32 0l0 64l42 0z m-309 373l11 0l0-10c0-6 4-11 10-11c6 0 11 5 11 11l0 10l203 0c6 0 10 5 10 11c0 6-4 11-10 11l-235 0c-6 0-11-5-11-11c0-6 5-11 11-11z"/>
<glyph unicode="&#100;" d="M405 320l-32 0l0 75c0 64-52 117-117 117c-65 0-117-53-117-117l0-75l-32 0c-59 0-107-48-107-107l0-138c0-41 33-75 75-75l362 0c42 0 75 34 75 75l0 138c0 59-48 107-107 107z m-245 75c0 53 43 96 96 96c53 0 96-43 96-96l0-75l-192 0z m-53-96l32 0l0-32c0-6 4-11 10-11c6 0 11 5 11 11l0 32l192 0l0-32c0-6 5-11 11-11c6 0 10 5 10 11l0 32l32 0c47 0 86-39 86-86l0-86c-57-5-101-49-106-106l-258 0c-5 57-49 101-106 106l0 86c0 47 39 86 86 86z m-86-224l0 31c45-5 80-40 85-85l-31 0c-30 0-54 24-54 54z m416-54l-31 0c5 45 40 80 85 85l0-31c0-30-24-54-54-54z m-384 171l32 0l0-32c0-6 5-11 11-11c6 0 11 5 11 11l0 32l352 0c6 0 10 5 10 11c0 6-4 10-10 10l-406 0c-6 0-10-4-10-10c0-6 4-11 10-11z"/>
<glyph unicode="&#101;" d="M235 224c0 6-5 11-11 11l-43 0c-6 0-10-5-10-11c0-6 4-11 10-11l43 0c6 0 11 5 11 11z m-139 75l192 0c6 0 11 4 11 10c0 6-5 11-11 11l-192 0c-6 0-11-5-11-11c0-6 5-10 11-10z m245-42c60 5 107 55 107 116c0 61-47 112-107 117l0 11c0 6-4 11-10 11c-6 0-11-5-11-11l0-224l-245 0c-6 0-11-4-11-10c0-53 30-99 74-123l-21-132c0-6 4-11 9-12c1 0 1 0 2 0c5 0 10 4 11 9l11 76l98 0l0-4c-14-7-24-21-24-38c0-24 19-43 43-43c23 0 42 19 42 43c0 22-17 41-40 42l-2 59c41 22 70 64 74 113z m86 116c0-49-38-90-86-95l0 191c48-6 86-46 86-96z m-341-117l234 0c-6-60-56-107-117-107c-61 0-112 47-117 107z m202-213c0-12-10-22-21-22c-12 0-22 10-22 22c0 11 10 21 22 21c11 0 21-10 21-21z m-41 64l-94 0l5 29c14-5 29-8 45-8c15 0 29 3 43 7z"/>
<glyph unicode="&#102;" d="M469 512l-394 0c-6 0-11-5-11-11l0-213c0-6 5-11 11-11l32 0l0-53l-11 0c-6 0-11-5-11-11l0-10l-74 0c-6 0-11-5-11-11c0-6 5-11 11-11l74 0l0-10c0-6 5-11 11-11l32 0l0-11c0-6 5-10 11-10c6 0 10 4 10 10l0 11l32 0c6 0 11 5 11 11l0 42c0 6-5 11-11 11l-10 0l0 53l42 0l0-192l-202 0c-6 0-11-4-11-10l0-64c0-6 5-11 11-11l469 0c6 0 10 4 11 10l21 225l0 234c0 24-19 43-43 43z m-298-331l-64 0l0 22l64 0z m-22 43l-21 0l0 53l21 0z m-128-160l203 0c6 0 11 5 11 11l0 213c0 6-5 11-11 11l-139 0l0 192l384 0c12 0 22-10 22-22l0-64l-118 0c-6 0-10-4-10-10c0-6 4-11 10-11l118 0l0-21l-118 0c-6 0-10-5-10-11c0-6 4-11 10-11l118 0l0-21l-118 0c-6 0-10-5-10-11c0-6 4-10 10-10l118 0l0-43l-96 0c-6 0-11-5-11-11l0-224l-363 0z m449-43l-65 0l0 214l86 0z m-321 448c-23 0-42-19-42-42c0-24 19-43 42-43c24 0 43 19 43 43c0 23-19 42-43 42z m0-64c-11 0-21 10-21 22c0 11 10 21 21 21c12 0 22-10 22-21c0-12-10-22-22-22z"/>
<glyph unicode="&#103;" d="M405 427c-17 0-32-15-32-32c0-18-14-32-32-32c-17 0-32 14-32 32c0 35-28 64-64 64c-35 0-64-29-64-64l0-22l-32 0c-6 0-10-4-10-10l0-30c-70-23-118-89-118-162c0-94 77-171 171-171c94 0 171 77 171 171c0 73-48 139-118 162l0 30c0 6-4 10-10 10l-32 0l0 22c0 23 19 42 42 42c24 0 43-19 43-42c0-30 24-54 53-54c30 0 54 24 54 54c0 6 4 10 10 10c6 0 11 5 11 11c0 6-5 11-11 11z m-173-113c64-17 109-76 109-143c0-83-67-150-149-150c-82 0-149 67-149 150c0 67 45 126 109 143c5 2 8 6 8 11l0 27l64 0l0-27c0-5 3-9 8-11z m173 198c-6 0-10-5-10-11l0-42c0-6 4-11 10-11c6 0 11 5 11 11l0 42c0 6-5 11-11 11z m31-77c2 0 5 2 7 4l30 30c4 4 4 11 0 15c-4 4-11 4-15 0l-30-30c-4-4-4-11 0-15c2-2 5-4 8-4z m-68 4c2-2 4-4 7-4c3 0 6 2 8 4c4 4 4 11 0 15l-30 30c-5 4-11 4-16 0c-4-4-4-11 0-15z m123-12l-43 0c-6 0-11-5-11-11c0-6 5-11 11-11l43 0c6 0 10 5 10 11c0 6-4 11-10 11z m-48-34c-4 5-11 5-15 0c-4-4-4-11 0-15l30-30c2-2 5-3 8-3c2 0 5 1 7 3c4 4 4 11 0 15z m-324-117c-28-20-47-49-53-83c-6-33 1-67 21-96c2-3 5-4 9-4c2 0 4 1 6 2c5 3 6 10 3 15c-34 48-22 115 26 148c5 4 6 10 3 15c-4 5-10 6-15 3z"/>
<glyph unicode="&#104;" d="M245 21l-170 0c-18 0-32 15-32 32l0 363c9-6 20-11 32-11l352 0l0-128c0-6 4-10 10-10c6 0 11 4 11 10l0 150l-373 0c-18 0-32 14-32 32c0 17 14 32 32 32l362 0c6 0 11 4 11 10c0 6-5 11-11 11l-362 0c-30 0-54-24-54-53l0-406c0-29 24-53 54-53l170 0c6 0 11 5 11 11c0 6-5 10-11 10z m118 235c-71 0-128-57-128-128c0-71 57-128 128-128c70 0 128 57 128 128c0 71-58 128-128 128z m0-235c-59 0-107 48-107 107c0 59 48 107 107 107c58 0 106-48 106-107c0-59-48-107-106-107z m35 104l-25-25l0 81c0 6-4 11-10 11c-6 0-11-5-11-11l0-81l-24 25c-5 4-11 4-16 0c-4-4-4-11 0-15l43-43c0 0 0 0 0 0l8-7l7 7c0 0 0 0 0 0l43 43c4 4 4 11 0 15c-4 4-11 4-15 0z m-323 344l352 0l0-21l-352 0z"/>
<glyph unicode="&#105;" d="M475 456c-3 2-7 3-10 1l-220-104l-219 104c-3 2-7 1-10-1c-3-1-5-5-5-9l0-330c0-4 2-8 6-10l224-106c1-1 3-2 4-2c2 0 3 1 5 2l224 106c4 2 6 6 6 10l0 330c0 4-2 8-5 9z m-443-25l203-97l0-307l-203 97z m427-307l-203-97l0 307l203 97z m-400 346l186-88l186 88c6 3 8 9 5 15c-2 5-9 7-14 5l-177-85l-176 85c-6 2-12 0-15-5c-2-6 0-12 5-15z"/>
<glyph unicode="&#106;" d="M459 448l-406 0c-29 0-53-24-53-53l0-299c0-29 24-53 53-53l406 0c29 0 53 24 53 53l0 299c0 29-24 53-53 53z m-406-21l406 0c17 0 32-15 32-32l0-54l-470 0l0 54c0 17 15 32 32 32z m406-363l-406 0c-17 0-32 14-32 32l0 224l470 0l0-224c0-18-15-32-32-32z m-352 320c0-12-10-21-22-21c-11 0-21 9-21 21c0 12 10 21 21 21c12 0 22-9 22-21z m64 0c0-12-10-21-22-21c-11 0-21 9-21 21c0 12 10 21 21 21c12 0 22-9 22-21z m64 0c0-12-10-21-22-21c-11 0-21 9-21 21c0 12 10 21 21 21c12 0 22-9 22-21z"/>
<glyph unicode="&#107;" d="M469 256c0 24-19 43-42 43l-107 0c-4 0-7 1-9 4c-2 3-3 7-1 10c7 18 10 36 10 54l0 81c0 35-29 64-64 64c-35 0-64-29-64-64l0-81c0-18 4-36 10-54c2-3 1-7-1-10c-2-3-5-4-9-4l-107 0c-23 0-42-19-42-43l0-85l21 0l0-160c0-6 5-11 11-11l53 0c4 0 8 2 10 6l22 45l0-40c0-3 1-6 3-8c2-2 5-3 8-3l266 0c6 0 11 5 11 11l0 160l21 0z m-42-235l-22 0l0 96c0 6-4 11-10 11c-6 0-11-5-11-11l0-96l-21 0l0 75c0 6-5 11-11 11c-6 0-11-5-11-11l0-75l-21 0l0 43c0 6-5 11-11 11c-6 0-10-5-10-11l0-43l-118 0l0 75c0 5-3 9-8 10c-5 1-10-1-12-5l-40-80l-36 0l0 150l342 0z m21 171l-384 0l0 64c0 12 10 21 21 21l107 0c11 0 21 6 27 14c6 9 7 20 3 30c-6 15-9 30-9 46l0 81c0 24 19 43 43 43c24 0 43-19 43-43l0-81c0-16-3-31-9-46c-4-10-3-21 3-30c6-8 16-14 27-14l107 0c11 0 21-9 21-21z m-171 256c0-12-9-21-21-21c-12 0-21 9-21 21c0 12 9 21 21 21c12 0 21-9 21-21z"/>
<glyph unicode="&#108;" d="M480 469l-448 0c-18 0-32-14-32-32l0-277c0-18 14-32 32-32l32 0l0-100l100 100l316 0c18 0 32 14 32 32l0 277c0 18-14 32-32 32z m11-309c0-6-5-11-11-11l-324 0l-71-70l0 70l-53 0c-6 0-11 5-11 11l0 277c0 6 5 11 11 11l448 0c6 0 11-5 11-11z m-299 139c0-12-10-22-21-22c-12 0-22 10-22 22c0 11 10 21 22 21c11 0 21-10 21-21z m171 0c0-12-10-22-22-22c-11 0-21 10-21 22c0 11 10 21 21 21c12 0 22-10 22-21z m-86 0c0-12-9-22-21-22c-12 0-21 10-21 22c0 11 9 21 21 21c12 0 21-10 21-21z"/>
<glyph unicode="&#109;" d="M321 388c-24 0-50-11-65-36c-14 24-40 35-64 35c-37 0-75-27-75-80c0-92 128-166 134-169c1-1 3-2 5-2c2 0 4 1 6 2c5 4 133 90 133 175c0 49-37 75-74 75z m-65-228c-25 15-117 77-117 147c0 41 28 59 53 59c21 0 48-12 53-48c1-5 6-9 11-9c5 0 10 4 11 9c5 36 32 49 54 49c25 0 52-17 52-54c0-65-93-136-117-153z m0 328c-141 0-256-94-256-211c0-55 25-106 71-145l-51-103c-3-4-2-9 1-12c2-2 5-3 8-3c2 0 3 0 5 1l137 63c27-7 56-11 85-11c141 0 256 94 256 210c0 117-115 211-256 211z m0-400c-29 0-56 4-83 12c-2 1-5 1-7-1l-114-52l42 83c2 4 1 10-3 13c-45 36-70 83-70 134c0 105 106 190 235 190c129 0 235-85 235-190c0-104-106-189-235-189z"/>
<glyph unicode="&#110;" d="M168 430l45 46l0-124c0-6 5-11 11-11c6 0 11 5 11 11l0 124l45-46c3-2 5-3 8-3c3 0 5 1 8 3c4 4 4 11 0 15l-64 64c-1 1-3 2-4 2c-3 1-5 1-8 0c-1 0-3-1-4-2l-64-64c-4-4-4-11 0-15c5-4 11-4 16 0z m333 18l-74 0c-5 0-10-3-11-8l-28-120l-377 0c-4 0-7-2-9-4c-2-3-3-7-1-10l64-192c1-4 5-7 10-7l263 0l-5-22l-226 0c-24 0-43-19-43-42c0-24 19-43 43-43c23 0 42 19 42 43c0 7-2 15-6 21l162 0c-4-6-6-14-6-21c0-24 19-43 42-43c24 0 43 19 43 43c0 19-13 35-30 40l7 29c1 2 2 3 2 5c0 1 0 1 0 1l72 309l66 0c6 0 11 4 11 10c0 6-5 11-11 11z m-419-320l-57 171l358 0l-40-171z m46-85c0-12-10-22-21-22c-12 0-22 10-22 22c0 11 10 21 22 21c11 0 21-10 21-21z m235 0c0-12-10-22-22-22c-11 0-21 10-21 22c0 11 10 21 21 21c12 0 22-10 22-21z"/>
<glyph unicode="&#111;" d="M216 344c1-1 3-1 4-2c1 0 3-1 4-1c1 0 3 1 4 1c1 1 3 1 4 2l64 64c4 5 4 11 0 16c-5 4-11 4-16 0l-45-46l0 123c0 6-5 11-11 11c-6 0-11-5-11-11l0-123l-45 46c-5 4-11 4-16 0c-4-5-4-11 0-16z m285 104l-74 0c-5 0-10-3-11-8l-28-120l-377 0c-4 0-7-2-9-4c-2-3-3-7-1-10l64-192c1-4 5-7 10-7l263 0l-5-22l-226 0c-24 0-43-19-43-42c0-24 19-43 43-43c23 0 42 19 42 43c0 7-2 15-6 21l162 0c-4-6-6-14-6-21c0-24 19-43 42-43c24 0 43 19 43 43c0 19-13 35-30 40l7 29c1 2 2 3 2 5c0 1 0 1 0 1l72 309l66 0c6 0 11 4 11 10c0 6-5 11-11 11z m-419-320l-57 171l358 0l-40-171z m46-85c0-12-10-22-21-22c-12 0-22 10-22 22c0 11 10 21 22 21c11 0 21-10 21-21z m235 0c0-12-10-22-22-22c-11 0-21 10-21 22c0 11 10 21 21 21c12 0 22-10 22-21z"/>
<glyph unicode="&#112;" d="M469 270l0 167c0 42-33 75-74 75l-278 0c-41 0-74-33-74-75l0-167l-43-75l0-56c0-24 19-43 43-43l52 0c-8-24-23-52-49-78l-18-18l460 0l-23 19c-27 23-42 52-50 77l54 0c24 0 43 19 43 43l0 56z m-21 167l0-160l-160 0l0 41c25 12 42 37 42 66c0 29-17 54-42 66l0 41l107 0c29 0 53-24 53-54z m-192 21c-4 0-7-1-11-1l0 34l22 0l0-34c-4 0-7 1-11 1z m0-20c30 0 54-24 54-54c0-30-24-54-54-54c-30 0-54 24-54 54c0 30 24 54 54 54z m0-128c4 0 7 1 11 1l0-34l-22 0l0 34c4 0 7-1 11-1z m-139 181l107 0l0-41c-25-12-42-37-42-66c0-29 17-54 42-66l0-41l-160 0l0 160c0 30 24 54 53 54z m-57-235l392 0l31-54l-454 0z m67-117l258 0c1-15 5-44 20-75l-300 0c16 32 21 60 22 75z m-50-118c6 7 11 15 16 22l324 0c4-8 9-15 16-22z m392 96l-60 0c-1 9-2 16-3 22l63 0l0 21l-426 0l0-21l63 0c-1-6-2-13-4-22l-59 0c-12 0-22 10-22 22l0 42l470 0l0-42c0-12-10-22-22-22z m-346 181c8 0 16 7 16 16c0 9-8 16-16 16c-9 0-16-7-16-16c0-9 7-16 16-16z m0 21c3 0 5-2 5-5c0-3-2-5-5-5c-3 0-6 2-6 5c0 3 3 5 6 5z m304 139l-75 0l0-64l75 0z m-22-43l-32 0l0 22l32 0z"/>
<glyph unicode="&#113;" d="M96 192c-29 0-53-24-53-53c0-30 24-54 53-54c29 0 53 24 53 54c0 29-24 53-53 53z m0-85c-18 0-32 14-32 32c0 17 14 32 32 32c18 0 32-15 32-32c0-18-14-32-32-32z m125-10c5-2 11 1 13 6l19 57l27 0l19-57c2-4 6-7 10-7c1 0 3 0 4 1c5 1 8 7 6 13l-21 64c-1 4-5 7-10 7l-43 0c-4 0-8-3-10-7l-21-64c-2-6 1-12 7-13z m-50 351l21 0l0-107l-21 0z m42 0l22 0l0-107l-22 0z m43 0l21 0l0-107l-21 0z m43 0l21 0l0-107l-21 0z m42 0l22 0l0-107l-22 0z m43-341l85 0l0 64l-85 0z m21 42l43 0l0-21l-43 0z m32 86l-74 0l0 21l-22 0l0 43l11 0c29 0 53 24 53 53l0 139l-277 0l0-139c0-29 24-53 53-53l11 0l0-43l-21 0l0-21l-96 0c-42 0-75-34-75-75l0-43c0-41 33-74 75-74l96 0l0-22l192 0l0 22l74 0c42 0 75 33 75 74l0 43c0 41-33 75-75 75z m-288 117l0 117l235 0l0-117c0-18-14-32-32-32l-171 0c-17 0-32 14-32 32z m64-53l107 0l0-43l-107 0z m-138-235c-30 0-54 24-54 53l0 43c0 29 24 53 54 53l96 0l0-149z m266-21l-149 0l0 192l149 0z m150 74c0-29-24-53-54-53l-74 0l0 149l74 0c30 0 54-24 54-53z"/>
<glyph unicode="&#114;" d="M277 245l-149 0c-24 0-43-19-43-42c0-24 19-43 43-43c24 0 43 19 43 43c0 7-3 15-6 21l76 0c-4-6-6-14-6-21c0-24 19-43 42-43c24 0 43 19 43 43c0 23-19 42-43 42z m-128-42c0-12-9-22-21-22c-12 0-21 10-21 22c0 11 9 21 21 21c12 0 21-10 21-21z m128-22c-11 0-21 10-21 22c0 11 10 21 21 21c12 0 22-10 22-21c0-12-10-22-22-22z m225 108c-6 4-14 5-21 2l-97-40l0 58c0 18-14 32-32 32l-11 0l0 54c0 6 5 10 11 10l34 0c4-12 16-21 30-21l64 0c18 0 32 14 32 32c0 18-14 32-32 32l-64 0c-14 0-26-9-30-21l-34 0c-18 0-32-15-32-32l0-54l-64 0l0 32c0 18-14 32-32 32l-213 0c-6 0-11-4-11-10c0-6 5-11 11-11l213 0c6 0 11-5 11-11l0-32l-182 0c-17 0-32-14-32-32l0-192c0-17 15-32 32-32l299 0c18 0 32 15 32 32l0 38l97-41c3-1 6-2 9-2c4 0 8 2 12 4c6 4 10 11 10 19l0 136c0 7-4 14-10 18z m-86 138l64 0c6 0 11-5 11-11c0-6-5-11-11-11l-64 0c-6 0-11 5-11 11c0 6 5 11 11 11z m-64-320l-299 0c-6 0-10 4-10 10l0 192c0 6 4 11 10 11l299 0c6 0 11-5 11-11l0-74c0 0 0 0 0 0l0-64c0 0 0 0 0 0l0-54c0-6-5-10-11-10z m139 28l-1-1l-106 44l0 50l106 44l-5 9l6-10z"/>
<glyph unicode="&#115;" d="M405 171l-298 0c-59 0-107 48-107 106c0 6 5 11 11 11c6 0 10-5 10-11c0-47 39-85 86-85l298 0c47 0 86 38 86 85c0 6 4 11 10 11c6 0 11-5 11-11c0-58-48-106-107-106z m11 64l-320 0c-6 0-11 4-11 10c0 6 5 11 11 11l320 0c6 0 11-5 11-11c0-6-5-10-11-10z m11-53l-22 0l0 159c0 83-67 150-149 150c-82 0-149-67-149-150l0-159l-22 0l0 159c0 94 77 171 171 171c94 0 171-77 171-171z m-139-139l-64 0l-21-43l106 0z"/>
<glyph unicode="&#116;" d="M384 0l-256 0c-6 0-10 4-11 10l-20 268c-43 5-76 41-76 85c0 47 40 87 86 87c10 0 19-2 28-6c15 41 62 68 121 68c56 0 95-23 119-69c9 4 20 7 30 7c46 0 86-40 86-87c0-44-33-80-76-85l-20-268c-1-6-5-10-11-10z m-246 21l236 0l21 268c0 5 5 10 10 10c36 0 64 28 64 64c0 38-34 65-64 65c-10 0-20-3-29-8c-3-2-6-3-9-2c-3 1-5 3-7 6c-20 46-53 67-104 67c-55 0-97-26-104-64c0-4-3-7-6-8c-3-2-7-1-10 1c-9 5-19 8-29 8c-30 0-64-27-64-65c0-36 28-64 64-64c5 0 10-5 10-10z m253 64l-270 0c-6 0-10 5-10 11c0 6 4 11 10 11l270 0c6 0 10-5 10-11c0-6-4-11-10-11z m-188 0c-6 0-11 5-11 11l0 85c0 6 5 11 11 11c6 0 10-5 10-11l0-85c0-6-4-11-10-11z m53 0c-6 0-11 5-11 11l0 107c0 6 5 10 11 10c6 0 11-4 11-10l0-107c0-6-5-11-11-11z m53 0c-6 0-10 5-10 11l0 85c0 6 4 11 10 11c6 0 11-5 11-11l0-85c0-6-5-11-11-11z"/>
<glyph unicode="&#117;" d="M448 512l-384 0c-35 0-64-29-64-64l0-384c0-35 29-64 64-64l384 0c35 0 64 29 64 64l0 384c0 35-29 64-64 64z m43-448c0-24-19-43-43-43l-384 0c-24 0-43 19-43 43l0 384c0 24 19 43 43 43l384 0c24 0 43-19 43-43z m-235 384c-106 0-192-86-192-192c0-106 86-192 192-192c106 0 192 86 192 192c0 106-86 192-192 192z m0-363c-94 0-171 77-171 171c0 94 77 171 171 171c94 0 171-77 171-171c0-94-77-171-171-171z m64 182l-53 0l0 96c0 6-5 10-11 10c-6 0-11-4-11-10l0-118l75 0c6 0 11 5 11 11c0 6-5 11-11 11z"/>
<glyph unicode="&#118;" d="M267 192c-3 0-6 1-8 3l-171 171c-3 3-4 7-2 11c2 4 6 7 10 7l341 0c5 0 9-3 10-7c2-4 1-8-2-11l-171-171c-2-2-5-3-7-3z m-145 171l145-145l145 145z m145-363c-6 0-11 5-11 11l0 192c0 6 5 10 11 10c6 0 10-4 10-10l0-192c0-6-4-11-10-11z m85 0l-171 0c-6 0-10 5-10 11c0 6 4 10 10 10l171 0c6 0 11-4 11-10c0-6-5-11-11-11z m-200 366l-55 56c-11 10-24 15-38 15l-59 0l0 22l59 0c20 0 39-8 53-22l56-56z m285-46c-13 0-27 4-39 11l12 18c8-5 17-8 27-8c30 0 54 24 54 54c0 29-24 53-54 53c-29 0-53-24-53-53c0-6 1-12 3-18l-20-7c-3 8-4 16-4 25c0 41 33 74 74 74c41 0 75-33 75-74c0-41-34-75-75-75z"/>
<glyph unicode="&#119;" d="M373 0l-256 0c-5 0-10 4-10 10l-22 341c0 3 1 6 3 8c2 2 5 4 8 4l299 0c3 0 5-2 7-4c2-2 3-5 3-8l-21-341c0-6-5-10-11-10z m-246 21l236 0l20 320l-276 0z m289 320l-341 0c-6 0-11 5-11 11l0 85c0 6 5 11 11 11l341 0c6 0 11-5 11-11l0-85c0-6-5-11-11-11z m-331 22l320 0l0 64l-320 0z m310 64c0 0 0 0 0 0l-299 0c-3 0-7 1-9 4c-2 3-2 6-1 10l21 64c2 4 6 7 10 7l256 0c5 0 9-3 10-7l21-62c1-2 2-4 2-6c0-6-5-10-11-10z m-284 21l269 0l-14 43l-241 0z m278-192l-288 0c-6 0-10 5-10 11c0 6 4 10 10 10l288 0c6 0 11-4 11-10c0-6-5-11-11-11z m-280-107l272 0l0-21l-272 0z m168 43l-64 0c-6 0-10 5-10 11c0 6 4 10 10 10l64 0c6 0 11-4 11-10c0-6-5-11-11-11z"/>
<glyph unicode="&#120;" d="M469 469l-426 0c-24 0-43-20-43-44l0-316c0-25 19-45 43-45l202 0l0-21l-138 0c-6 0-11-5-11-11c0-6 5-11 11-11l298 0c6 0 11 5 11 11c0 6-5 11-11 11l-138 0l0 21l202 0c24 0 43 20 43 45l0 316c0 24-19 44-43 44z m-426-21l426 0c12 0 22-10 22-23l0-254l-470 0l0 254c0 13 10 23 22 23z m426-363l-426 0c-12 0-22 11-22 24l0 40l470 0l0-40c0-13-10-24-22-24z m-192 32c0-11-9-21-21-21c-12 0-21 10-21 21c0 12 9 22 21 22c12 0 21-10 21-22z"/>
<glyph unicode="&#121;" d="M469 469l-426 0c-24 0-43-20-43-44l0-316c0-25 19-45 43-45l202 0l0-21l-138 0c-6 0-11-5-11-11c0-6 5-11 11-11l298 0c6 0 11 5 11 11c0 6-5 11-11 11l-138 0l0 21l202 0c24 0 43 20 43 45l0 316c0 24-19 44-43 44z m-426-21l426 0c12 0 22-10 22-23l0-254l-470 0l0 254c0 13 10 23 22 23z m426-363l-426 0c-12 0-22 11-22 24l0 40l470 0l0-40c0-13-10-24-22-24z m-192 32c0-11-9-21-21-21c-12 0-21 10-21 21c0 12 9 22 21 22c12 0 21-10 21-22z"/>
<glyph unicode="&#122;" d="M331 469l-171 0c-18 0-32-14-32-32l0-128c0-17 14-32 32-32l171 0c17 0 32 15 32 32l0 128c0 18-15 32-32 32z m10-160c0-6-4-10-10-10l-171 0c-6 0-11 4-11 10l0 128c0 6 5 11 11 11l171 0c6 0 10-5 10-11z m-10-53l-64 0c-6 0-11-5-11-11c0-6 5-10 11-10l64 0c6 0 10 4 10 10c0 6-4 11-10 11z m178-195l-46 46c27 2 49 25 49 53c0 29-24 53-53 53l-54 0l0 224c0 42-33 75-74 75l-171 0c-41 0-75-33-75-75l0-256c0-17 15-32 32-32l256 0c18 0 32 15 32 32l0 11l54 0c17 0 32-14 32-32c0-18-15-32-32-32l-384 0c-3 0-6-1-8-3l-64-64c-1-1-2-2-2-4c-1-1-1-2-1-4l0-42c0-6 5-11 11-11l490 0c6 0 11 5 11 11l0 42c0 2 0 3-1 4c0 2-1 3-2 4z m-125 120c0-6-5-10-11-10l-256 0c-6 0-10 4-10 10l0 256c0 30 24 54 53 54l171 0c29 0 53-24 53-54z m-305-74l354 0l43-43l-440 0z m-58-86l0 22l470 0l0-22z m118 64c0-6-5-10-11-10c-6 0-11 4-11 10c0 6 5 11 11 11c6 0 11-5 11-11z m64 0c0-6-5-10-11-10c-6 0-11 4-11 10c0 6 5 11 11 11c6 0 11-5 11-11z m64 0c0-6-5-10-11-10c-6 0-11 4-11 10c0 6 5 11 11 11c6 0 11-5 11-11z m64 0c0-6-5-10-11-10c-6 0-11 4-11 10c0 6 5 11 11 11c6 0 11-5 11-11z m64 0c0-6-5-10-11-10c-6 0-11 4-11 10c0 6 5 11 11 11c6 0 11-5 11-11z"/>
<glyph unicode="&#65;" d="M21 331l0 10l256 0l0 139c0 18-13 32-30 32l-217 0c-16 0-30-14-30-32l0-149c0-18 14-32 30-32l98 0l0 21l-98 0c-5 0-9 5-9 11z m0 149c0 6 4 11 9 11l217 0c5 0 9-5 9-11l0-117l-235 0z m32-203c-6 0-10-4-10-10c0-6 4-11 10-11l75 0l0 21z m414 43l-273 0c-25 0-45-22-45-49l0-179c0-27 20-49 45-49l126 0l0-22l-85 0c-6 0-11-4-11-10c0-6 5-11 11-11l188 0c6 0 11 5 11 11c0 6-5 10-11 10l-82 0l0 22l126 0c25 0 45 22 45 49l0 179c0 27-20 49-45 49z m-273-21l273 0c13 0 24-13 24-28l0-143l-320 0l0 143c0 15 10 28 23 28z m273-235l-273 0c-13 0-23 12-23 28l0 15l320 0l0-15c0-16-11-28-24-28z m-126 21c0-6-4-10-10-10c-6 0-11 4-11 10c0 6 5 11 11 11c6 0 10-5 10-11z"/>
<glyph unicode="&#66;" d="M509 472c-18 17-68 19-82 19c-15 0-65-2-83-19c-2-2-3-5-3-8l0-437c0-3 1-6 3-8c18-18 68-19 83-19c14 0 64 1 82 19c2 2 3 5 3 8l0 437c0 3-1 6-3 8z m-18-440c-10-6-33-11-64-11c-32 0-55 5-64 11l0 427c9 5 32 10 64 10c31 0 54-5 64-10z m-173 92l-46 61c-13 18-34 28-57 28l-110 0c-23 0-44-10-57-28l-46-61l0 0c-1-2-2-4-2-7l0-64c0-29 24-53 53-53l214 0c29 0 53 24 53 53l0 64c0 3-1 5-2 7z m-253 48c10 13 24 20 40 20l110 0c16 0 31-7 40-20l43-58c-1-16-15-29-31-29l-214 0c-16 0-30 13-31 29z m234-119c0-17-15-32-32-32l-214 0c-17 0-32 15-32 32l0 22c9-7 20-11 32-11l214 0c12 0 23 4 32 11z m74 326c0-30 24-54 54-54c29 0 53 24 53 54c0 29-24 53-53 53c-30 0-54-24-54-53z m86 0c0-18-15-32-32-32c-18 0-32 14-32 32c0 17 14 32 32 32c17 0 32-15 32-32z m-43-86c0-11-10-21-21-21c-12 0-22 10-22 21c0 12 10 22 22 22c11 0 21-10 21-22z m64 0c0-11-10-21-21-21c-12 0-22 10-22 21c0 12 10 22 22 22c11 0 21-10 21-22z"/>
<glyph unicode="&#67;" d="M310 128c-4 0-7-2-10-5l-12-18l-23 39c-4 7-14 7-18 0l-23-39l-12 18c-3 3-6 5-10 5c-3 0-7-2-9-5c-5-10-33-61-33-80c0-24 19-43 43-43l106 0c24 0 43 19 43 43c0 19-28 70-33 80c-2 3-6 5-9 5z m-1-107l-106 0c-12 0-22 10-22 22c0 7 11 31 23 54l11-18c2-3 6-4 9-4c4 0 7 2 9 5l23 38l23-38c2-3 5-5 9-5c3 0 7 1 9 4l11 18c12-23 23-47 23-54c0-12-10-22-22-22z m150 391l-32 0l0 36l10 0c6 0 11 5 11 11c0 6-5 10-11 10l-129 0c-5 25-26 43-52 43c-26 0-47-18-52-43l-129 0c-6 0-11-4-11-10c0-6 5-11 11-11l10 0l0-43l-32 0c-6 0-10-4-10-10c0-6 4-11 10-11l32 0l0-160c0-29 24-53 54-53l234 0c30 0 54 24 54 53l0 167l32 0c6 0 10 5 10 11c0 6-4 10-10 10z m-203 79c14 0 26-9 30-22l-60 0c4 13 16 22 30 22z m149-267c0-18-14-32-32-32l-234 0c-18 0-32 14-32 32l0 224l298 0z"/>
<glyph unicode="&#68;" d="M466 451c4 4 4 11 0 15c-4 4-11 4-15 0l-103-103l-220 0l0 32c0 6-5 10-11 10l-64 0c-6 0-10-4-10-10l0-32l-32 0c-6 0-11-5-11-11l0-64c0-6 5-11 11-11l32 0l0-224c0-6 4-10 10-10l224 0l0-32c0-6 5-11 11-11l64 0c6 0 11 5 11 11l0 32l32 0c6 0 10 4 10 10l0 64c0 6-4 11-10 11l-32 0l0 220z m-402-67l43 0l0-21l-43 0z m-43-85l0 42l320 0l0-213l-42 0l0 160c0 1-1 3-1 4c-1 3-3 5-6 6c-1 0-3 1-4 1z m107-22l134 0l-134-134z m149-15l0-134l-134 0z m22-241l0 22l42 0l0-22z m85 86l0-43l-320 0l0 213l43 0l0-160c0-1 0-2 0-4c2-2 4-4 6-6c2 0 3 0 4 0z"/>
<glyph unicode="&#69;" d="M62 108l3-1l382 0l3 1c39 26 62 69 62 116c0 76-62 139-139 139c-20 0-40-5-58-14c-15 7-31 12-48 13l0 23c30 5 53 31 53 63c0 35-29 64-64 64c-35 0-64-29-64-64c0-32 23-58 53-63l0-23c-17-1-33-6-48-13c-18 9-38 14-58 14c-77 0-139-63-139-139c0-47 23-90 62-116z m194 383c20 0 36-14 41-32l-82 0c5 18 21 32 41 32z m-41-54l82 0c-5-18-21-32-41-32c-20 0-36 14-41 32z m-76-96c12 0 24-2 35-5c-34-26-57-66-57-112c0-16 3-32 8-47c2-4 6-7 10-7c2 0 3 1 4 1c6 2 8 8 6 14c-4 12-6 25-6 39c0 65 52 117 117 117c65 0 117-52 117-117c0-13-2-27-6-39c-2-6 1-12 6-14c6-2 12 1 14 7c5 15 8 30 8 46c0 46-23 86-57 112c11 3 23 5 35 5c65 0 118-52 118-117c0-38-19-74-50-96l-370 0c-31 22-50 58-50 96c0 65 53 117 118 117z m309-256l-384 0c-28 0-42-21-42-42c0-22 14-43 42-43l384 0c28 0 42 21 42 43c0 21-14 42-42 42z m0-64l-384 0c-16 0-21 12-21 22c0 10 5 21 21 21l384 0c16 0 21-12 21-21c0-10-5-22-21-22z"/>
<glyph unicode="&#70;" d="M467 330c0 0 0 1 0 1c0 1-1 2-1 3c-17 101-104 178-210 178c-106 0-193-77-210-178c0-1-1-2-1-3c0 0 0-1 0-1c-1-10-2-21-2-31l0-54c0-61 47-111 106-117l0-96c0-6 5-11 11-11c6 0 11 5 11 11l0 117l-11 0c-53 0-96 43-96 96l0 54c0 7 1 14 1 21c44 5 84 37 84 96c0 6-4 11-10 11c-6 0-11-5-11-11c0-47-31-68-59-73c20 84 96 148 187 148c91 0 167-64 187-148c-28 5-59 26-59 73c0 6-5 11-11 11c-6 0-10-5-10-11c0-59 41-91 84-96c0-7 1-14 1-21l0-54c0-53-43-96-96-96l-11 0l0-117c0-6 5-11 11-11c6 0 11 5 11 11l0 96c59 6 106 56 106 117l0 54c0 10-1 21-2 31z m-243-181c-6 0-11-4-11-10l0-107c0-6 5-11 11-11c6 0 11 5 11 11l0 107c0 6-5 10-11 10z m64 0c-6 0-11-4-11-10l0-107c0-6 5-11 11-11c6 0 11 5 11 11l0 107c0 6-5 10-11 10z m139 96c0 41-34 75-75 75c-41 0-75-34-75-75c0-41 34-74 75-74c41 0 75 33 75 74z m-128 0c0 30 24 54 53 54c29 0 53-24 53-54c0-29-24-53-53-53c-29 0-53 24-53 53z m-139 75c-41 0-75-34-75-75c0-41 34-74 75-74c41 0 75 33 75 74c0 41-34 75-75 75z m0-128c-29 0-53 24-53 53c0 30 24 54 53 54c29 0 53-24 53-54c0-29-24-53-53-53z m115-4l-9 19c-4 8-16 8-20 0l-10-21c-2-3-2-7 0-10c2-3 6-5 9-5l22 0c0 0 0 0 0 0c6 0 11 4 11 10c0 3-1 5-3 7z"/>
<glyph unicode="&#71;" d="M256 512c-141 0-256-115-256-256c0-141 115-256 256-256c141 0 256 115 256 256c0 141-115 256-256 256z m0-491c-129 0-235 106-235 235c0 129 106 235 235 235c129 0 235-106 235-235c0-129-106-235-235-235z m136 371c-4 4-11 4-15 0l-99-99c-7 3-14 6-22 6c-24 0-43-19-43-43c0-24 19-43 43-43c24 0 43 19 43 43c0 8-3 15-6 22l99 99c4 4 4 11 0 15z m-136-157c-12 0-21 9-21 21c0 12 9 21 21 21c12 0 21-9 21-21c0-12-9-21-21-21z m-149 21c0 6-5 11-11 11l-43 0c-6 0-10-5-10-11c0-6 4-11 10-11l43 0c6 0 11 5 11 11z m-3-51l-39-17c-6-2-8-8-6-14c2-4 6-6 10-6c1 0 3 0 4 1l39 16c6 2 8 8 6 14c-2 5-8 8-14 6z m343-17l-39 17c-6 2-12-1-14-6c-2-6 0-12 6-14l39-16c1-1 3-1 4-1c4 0 8 2 10 6c2 6 0 12-6 14z m12 79l-43 0c-6 0-11-5-11-11c0-6 5-11 11-11l43 0c6 0 10 5 10 11c0 6-4 11-10 11z m-65 46c2-4 6-6 10-6c1 0 3 0 4 0l39 17c6 2 8 8 6 14c-2 5-8 8-14 5l-39-16c-6-2-8-8-6-14z m-81 81c1-1 3-1 4-1c4 0 8 3 10 7l16 39c3 6 0 12-5 14c-6 2-12 0-14-6l-17-39c-2-6 1-12 6-14z m-57 11c6 0 11 5 11 11l0 43c0 6-5 10-11 10c-6 0-11-4-11-10l0-43c0-6 5-11 11-11z m-71-5c2-4 6-7 10-7c1 0 3 0 4 1c5 2 8 8 6 14l-17 39c-2 6-8 8-14 6c-5-2-8-8-5-14z m-35-23l-30 30c-4 4-11 4-15 0c-4-4-4-11 0-15l30-30c2-2 5-4 8-4c3 0 5 2 7 4c5 4 5 10 0 15z m-85-53l39-17c1 0 3 0 4 0c4 0 8 2 10 6c2 6 0 12-6 14l-39 16c-6 3-12 0-14-5c-2-6 0-12 6-14z m287-153l-192 0c-6 0-11-5-11-11l0-64c0-6 5-11 11-11l192 0c6 0 11 5 11 11l0 64c0 6-5 11-11 11z m-11-64l-170 0l0 42l170 0z"/>
<glyph unicode="&#72;" d="M256 491c-120 0-213-43-213-96l0-278c0-54 93-96 213-96c120 0 213 42 213 96l0 278c0 53-93 96-213 96z m192-278c0-44-101-74-192-74c-91 0-192 30-192 74l0 54c34-32 106-54 192-54c86 0 158 22 192 54z m0 96c0-44-101-74-192-74c-91 0-192 30-192 74l0 43c34-32 106-53 192-53c86 0 158 21 192 53z m-192 160c91 0 192-30 192-74c0-44-101-75-192-75c-91 0-192 31-192 75c0 44 101 74 192 74z m0-426c-91 0-192 30-192 74l0 54c34-32 106-54 192-54c86 0 158 22 192 54l0-54c0-44-101-74-192-74z"/>
<glyph unicode="&#73;" d="M171 363c-6 0-11-5-11-11l0-267c0-6 5-10 11-10c6 0 10 4 10 10l0 267c0 6-4 11-10 11z m85 0c-6 0-11-5-11-11l0-267c0-6 5-10 11-10c6 0 11 4 11 10l0 267c0 6-5 11-11 11z m85 0c-6 0-10-5-10-11l0-267c0-6 4-10 10-10c6 0 11 4 11 10l0 267c0 6-5 11-11 11z m171 74l-139 0l0 64l-234 0l0-64l-139 0l0-21l75 0l0-416l362 0l0 416l75 0z m-352 43l192 0l0-43l-192 0z m256-459l-320 0l0 395l320 0z"/>
<glyph unicode="&#74;" d="M469 405c-6 0-10-4-10-10c0-6 4-11 10-11c12 0 22-10 22-21l0-320c0-12-10-22-22-22l-426 0c-12 0-22 10-22 22l0 21l64 0l0 277l-64 0l0 22c0 11 10 21 22 21l213 0c6 0 11 5 11 11c0 6-5 10-11 10l-213 0c-24 0-43-19-43-42l0-320c0-24 19-43 43-43l426 0c24 0 43 19 43 43l0 320c0 23-19 42-43 42z m-448-170l43 0l0-64l-43 0z m0-150l0 64l43 0l0-64z m43 235l0-64l-43 0l0 64z m149 21c6 0 11 5 11 11c0 6-5 11-11 11l-106 0l0-320l362 0l0 320l-42 0c-6 0-11-5-11-11c0-6 5-11 11-11l21 0l0-277l-320 0l0 277z m178 142l-177-176l-21-67l-19-19c-4-4-4-11 0-15c2-2 5-3 7-3c3 0 6 1 8 3l19 19l67 21l1 2l115 115c0 0 0 0 0 0c0 0 0 0 0 0l75 75c17 17 17 44 0 60c-16 17-44 17-60 0l-15-15c0 0 0 0 0 0c0 0 0 0 0 0z m-8-98l-30 30l46 46l30-30z m-114-114l-30 30l99 99l30-30z m-41 10l21-21l-30-9z m223 202c9-8 9-22 0-30l-7-7l-30 30l7 7c8 8 22 8 30 0z"/>
<glyph unicode="&#75;" d="M459 512l-150 0c-6 0-10-5-10-11l0-490c0-6 4-11 10-11l150 0c6 0 10 5 10 11l0 490c0 6-4 11-10 11z m-11-491l-128 0l0 64l43 0l0 22l-43 0l0 42l43 0l0 22l-43 0l0 42l43 0l0 22l-43 0l0 42l43 0l0 22l-43 0l0 42l43 0l0 22l-43 0l0 42l43 0l0 22l-43 0l0 64l128 0z m-300 465c-4 6-14 6-18 0l-64-96c-1-2-2-4-2-6l0-309c0-30 24-54 53-54l43 0c29 0 53 24 53 54l0 309c0 2 0 4-1 6z m-9-141c3-3 6-6 10-8l0-188l-21 0l0 188c4 2 8 5 11 8z m-32-196l-22 0l0 188c7-4 14-6 22-6z m-22-21l107 0l0-21l-107 0z m86 21l0 182c7 0 15 2 21 6l0-188z m-32 312l15-24l-31 0z m-54-80l24 35l60 0l23-35l0-8c0-11-10-21-21-21c-12 0-22 10-22 21c0 6-4 11-10 11c-6 0-11-5-11-11c0-11-10-21-21-21c-12 0-22 10-22 21z m75-338l-43 0c-17 0-32 14-32 32l0 10l107 0l0-10c0-18-14-32-32-32z"/>
<glyph unicode="&#76;" d="M7 427c0-24 19-43 43-43l32 0c17 0 33 9 42 22c10-13 26-22 43-22l32 0c24 0 43 19 43 43c6 0 10 4 10 10l0 22c0 6-4 10-10 10c-1 0-3 0-4 0c-8 25-32 43-60 43l-107 0c-28 0-52-18-60-43c-2 0-3 0-4 0c-6 0-11-4-11-10l0-22c0-6 5-10 11-10z m213 21l0-21c0-12-9-22-21-22l-32 0c-18 0-32 15-32 32l0 54l43 0c23 0 42-19 42-43z m-192 0c0 24 20 43 43 43l43 0l0-54c0-17-15-32-32-32l-32 0c-12 0-22 10-22 22z m438-135l0 39c0 6-5 11-11 11l-12 0c-5 24-26 42-52 42l-37 0c-38 0-70-31-70-69l0-181c0-74-59-134-133-134c-73 0-133 60-133 134l0 80c0 38 29 69 65 74c5-18 22-32 41-32c24 0 43 19 43 43c0 24-19 43-43 43c-20 0-36-14-41-33c-48-4-87-46-87-95l0-80c0-86 70-155 155-155c85 0 155 69 155 155l0 181c0 26 21 48 48 48l37 0c14 0 26-9 30-21l-9 0c-5 0-10-5-10-11l0-39c-25-12-43-38-43-68l0-202c0-24 19-43 43-43l64 0c23 0 42 19 42 43l0 202c0 30-17 56-42 68z m-342 28c12 0 22-9 22-21c0-12-10-21-22-21c-11 0-21 9-21 21c0 12 10 21 21 21z m256-106l107 0l0-171l-107 0z m43 85l0 21l21 0l0-21z m11-21c26 0 47-19 52-43l-104 0c4 24 26 43 52 43z m32-278l-64 0c-12 0-22 10-22 22l107 0c0-12-9-22-21-22z"/>
<glyph unicode="&#77;" d="M405 405l-96 0l0 86l32 0c6 0 11 4 11 10c0 6-5 11-11 11l-149 0c-6 0-11-5-11-11c0-6 5-10 11-10l32 0l0-86l-96 0c-6 0-11-4-11-10c0-6 5-11 11-11l53 0l0-203c0-49 33-89 75-95l0-75c0-6 5-11 11-11c6 0 10 5 10 11l0 75c42 6 75 46 75 95l0 203l53 0c6 0 11 5 11 11c0 6-5 10-11 10z m-160 86l43 0l0-86l-43 0z m86-310c0-41-29-74-64-74c-36 0-64 33-64 74l0 54l32 0c6 0 10 4 10 10c0 6-4 11-10 11l-32 0l0 21l32 0c6 0 10 5 10 11c0 6-4 11-10 11l-32 0l0 21l32 0c6 0 10 5 10 11c0 6-4 10-10 10l-32 0l0 43l128 0z"/>
<glyph unicode="&#78;" d="M235 139c100 0 181 81 181 181c0 100-81 181-181 181c-100 0-182-81-182-181c0-100 82-181 182-181z m0 341c88 0 160-72 160-160c0-88-72-160-160-160c-88 0-160 72-160 160c0 88 72 160 160 160z m166-326c89 89 91 232 7 324l8 8c4 4 4 11 0 15c-4 4-11 4-15 0l-31-30c-4-4-4-11 0-15c3-2 5-3 8-3c3 0 6 1 8 3l7 7c75-84 73-213-7-294c-81-80-211-83-294-7l7 7c4 4 4 11 0 15c-4 4-11 4-15 0l-30-30c-4-4-4-11 0-15c2-2 5-3 7-3c3 0 6 1 8 3l8 8c39-36 87-56 136-61l0-23c-40-4-79-19-112-44l-26-19l319 0l-25 19c-34 25-72 40-113 44l0 23c53 5 104 28 145 68z m-256-133c27 14 58 22 90 22c31 0 62-8 90-22z"/>
<glyph unicode="&#79;" d="M331 512c-6 0-11-5-11-11c0 0 0 0 0 0l0-490c0-6 5-11 11-11c6 0 10 5 10 11l0 170l54 0c6 0 10 5 10 11c0 155-30 320-74 320z m10-309l0 274c18-33 42-130 43-274z m-96 309c-6 0-10-5-10-11l0-106c0-26-19-48-43-53l0 159c0 6-5 11-11 11c-6 0-10-5-10-11l0-159c-25 5-43 27-43 53l0 106c0 6-5 11-11 11c-6 0-10-5-10-11l0-106c0-38 28-69 64-74l0-310c0-6 4-11 10-11c6 0 11 5 11 11l0 310c36 5 64 36 64 74l0 106c0 6-5 11-11 11z"/>
<glyph unicode="&#80;" d="M158 158c-2 2-3 5-3 8c0 2 1 5 3 7c4 4 11 4 15 0c12-12 33-12 45 0c6 6 10 14 10 23c0 8-4 16-10 22c-4 4-4 11 0 15c4 4 11 4 15 0c6-6 14-9 23-9c0 0 0 0 0 0c9 0 17 3 23 9c6 6 9 14 9 23c0 9-3 17-9 23c-2 2-3 4-3 7c0 3 1 6 3 8c2 2 4 3 7 3c0 0 0 0 0 0c3 0 6-1 8-3c12-13 33-13 45 0c12 12 12 32 0 45c-2 2-3 5-3 8c0 2 1 5 3 7c4 4 11 4 15 0c12-12 33-12 45 0c6 6 10 14 10 23c0 8-4 16-10 22c-4 4-4 11 0 15c4 5 11 5 15 0c5-4 11-4 15 0c5 5 5 11 1 15c-13 13-33 13-46 0c-12-12-12-32 0-45c2-2 3-4 3-7c0-3-1-6-3-8c-4-4-11-4-15 0c-12 12-33 12-45 0c-6-6-9-14-9-22c0-9 3-17 9-23c4-4 4-11 0-15c-4-4-11-4-15 0c-6 6-14 9-23 9c0 0 0 0 0 0c-8 0-16-3-22-9c-7-6-10-14-10-23c0-8 3-16 10-22c2-2 3-5 3-8c0-3-1-6-3-8c-2-2-5-3-8-3c-3 0-6 1-8 3c-12 13-33 13-45 0c-12-12-12-32 0-45c4-4 4-11 0-15c-4-4-11-4-15 0c-12 12-33 12-45 0c-6-6-10-14-10-23c0-8 4-16 10-22c4-4 4-11 0-15c-4-4-11-4-15 0c-13 12-33 12-45 0c-13-13-13-33 0-45c2-3 4-4 7-4c3 0 6 1 8 4c4 4 4 10 0 15c-5 4-5 11 0 15c4 4 11 4 15 0c12-13 32-13 45 0c12 12 12 32 0 45z m322 235c4 24-2 49-20 67c-14 14-33 22-53 22c-5 0-9-1-13-2c-48 40-100 41-138 2l-226-226c-32-31-44-87 2-137c-4-24 2-49 20-67c14-14 33-22 53-22c5 0 9 1 14 2c20-20 44-30 70-30c0 0 0 0 0 0c25 0 49 10 67 28l226 226c32 32 44 87-2 137z m-435-152l226 226c28 28 63 29 99 5c-6-4-11-8-16-12l-302-302c-5-5-9-10-12-16c-27 37-19 76 5 99z m22-174c-20 21-20 55 0 76l302 302c10 10 24 15 38 15c14 0 27-5 38-15c20-21 20-55 0-76l-302-302c-10-10-24-15-38-15c-14 0-27 5-38 15z m400 204l-226-226c-14-14-33-22-52-22c-17 0-33 6-47 17c6 3 11 7 16 12l302 302c5 5 9 10 12 16c29-40 17-77-5-99z"/>
<glyph unicode="&#81;" d="M384 267c-6 0-11-5-11-11l0-235l-352 0l0 427l288 0c6 0 11 5 11 11c0 6-5 10-11 10l-309 0l0-469l395 0l0 256c0 6-5 11-11 11z m126 224c-6 13-18 21-31 21c-8 0-16-3-22-10l-30-30c0 0 0 0 0 0c0 0 0 0 0 0l-174-173c0-1-1-2-2-3l-30-60c-2-5-1-10 2-13c2-2 5-3 8-3c1 0 3 0 5 1l60 30c1 1 2 2 3 2l203 204c10 10 13 22 8 34z m-225-221l-30-15l15 30l164 165l16-16z m202 202l-22-22l-15 15l22 22c2 3 5 4 7 4c5 0 9-4 11-8c2-4 1-7-3-11z"/>
<glyph unicode="&#82;" d="M469 427l-426 0c-24 0-43-19-43-43l0-256c0-24 19-43 43-43l426 0c24 0 43 19 43 43l0 256c0 24-19 43-43 43z m22-299c0-12-10-21-22-21l-426 0c-12 0-22 9-22 21l0 256c0 12 10 21 22 21l426 0c12 0 22-9 22-21z m-45 208c-3 5-10 7-14 4l-176-114l-176 114c-4 3-11 1-14-4c-3-4-2-11 3-14l187-121l187 121c5 3 6 10 3 14z m-292-103l-96-64c-5-3-6-10-3-15c2-3 6-5 9-5c2 0 4 1 6 2l96 64c5 3 6 10 3 15c-3 5-10 6-15 3z m204 0c-5 3-12 2-15-3c-3-5-2-12 3-15l96-64c2-1 4-2 6-2c3 0 7 2 9 5c3 5 2 12-3 15z"/>
<glyph unicode="&#83;" d="M448 11c0 0 0 0 0 1l0 500l-405 0l0-512l394 0c0 0 0 0 1 0l10 0l0 10c0 0 0 0 0 1z m-33 480l-51-63c-6-8-15-12-25-12l-188 0c-9 0-19 4-25 12l-50 63z m-351-20l46-57c10-12 25-19 41-19l84 0l0-299l-128 0c-4 0-7-2-9-4l-34-48z m10-450l38 54l267 0l38-54z m319 71c-2 2-6 4-9 4l-128 0l0 299l83 0c17 0 32 7 42 19l46 57l0-427z"/>
<glyph unicode="&#84;" d="M373 341l-32 0l0 75c0 53-38 96-85 96c-47 0-85-43-85-96l0-75l-32 0c-6 0-11-4-11-10c0-6 5-11 11-11l32 0l0-181c0-40 21-75 53-89l0-39c0-6 5-11 11-11l42 0c6 0 11 5 11 11l0 39c32 14 53 49 53 89l0 181l32 0c6 0 11 5 11 11c0 6-5 10-11 10z m-181 75c0 41 29 75 64 75c35 0 64-34 64-75l0-75l-128 0z m128-277c0-33-19-63-46-72c-4-1-7-6-7-10l0-36l-22 0l0 36c0 4-3 9-7 10c-27 9-46 39-46 72l0 32l32 0c6 0 11 4 11 10c0 6-5 11-11 11l-32 0l0 21l32 0c6 0 11 5 11 11c0 6-5 11-11 11l-32 0l0 21l32 0c6 0 11 5 11 11c0 6-5 10-11 10l-32 0l0 43l128 0z"/>
<glyph unicode="&#85;" d="M117 427c-17 0-32-15-32-32l0-246l-53 0c-6 0-11-4-11-10c0-6 5-11 11-11l53 0l0-85l-74 0c-6 0-11-5-11-11c0-6 5-11 11-11l128 0c6 0 10 5 10 11l0 363c0 17-14 32-32 32z m-10-384l0 352c0 6 4 10 10 10c6 0 11-4 11-10l0-352z m401 147l-39 29l0 112c0 29-24 53-53 53l-43 0c-111 0-202-91-202-203l0-32c0 0 0 0 0 0l0-85c0-6 4-11 10-11l46 0c13-19 36-32 61-32c25 0 48 13 61 32l40 0c8-18 27-32 48-32c22 0 41 14 49 32l15 0c6 0 11 5 11 11l0 117c0 4-2 7-4 9z m-316-115l0 70l85 85l3-3c3-2 5-3 8-3c3 0 5 1 8 3c4 4 4 11 0 15l-22 22c-4 4-11 4-15 0c-4-5-4-11 0-16l3-3l-70-70l0 6c0 100 81 182 181 182l43 0c18 0 32-15 32-32l0-107l-50 0l18 72c1 6-2 12-8 13c-6 1-12-2-13-8l-19-77l-35 0c-3 0-5-1-7-3l-51-51c-39-2-70-34-70-74c0-7 1-15 3-21z m96-32c-29 0-53 24-53 53c0 29 24 53 53 53c29 0 53-24 53-53c0-29-24-53-53-53z m149 0c-17 0-32 14-32 32c0 17 15 32 32 32c18 0 32-15 32-32c0-18-14-32-32-32z m54 32c0 29-24 53-54 53c-29 0-53-24-53-53l-24 0c2 6 3 14 3 21c0 33-22 62-53 71l36 36l109 0l36-27z"/>
<glyph unicode="&#86;" d="M452 500c-4 2-8 1-12-2c-23-24-55-37-88-37c-38 0-74 17-98 47c-4 5-13 5-17 0c-24-30-60-47-98-47c-34 0-65 13-89 37c-3 3-7 4-11 2c-4-2-7-5-7-10l0-316c0 0 0-1 0-2c1-5 24-119 210-172c1 0 2 0 3 0c1 0 2 0 3 0c187 53 210 167 210 172c1 1 1 2 1 2l0 316c0 5-3 8-7 10z m-15-325c-1-4-7-29-31-58c-24-29-72-70-161-95c-88 25-136 66-160 95c-24 29-31 54-32 58l0 292c25-18 55-27 86-27c40 0 79 16 106 45c28-29 66-45 107-45c31 0 61 9 85 27z m-149 220l-85 0l0-86l-86 0l0-85l86 0l0-85l85 0l0 85l85 0l0 85l-85 0z m64-107l0-43l-85 0l0-85l-43 0l0 85l-85 0l0 43l85 0l0 85l43 0l0-85z"/>
<glyph unicode="&#87;" d="M256 512c-59 0-107-48-107-107l0-266c0-6 5-11 11-11l85 0l0-117c0-6 5-11 11-11c6 0 11 5 11 11l0 117l85 0c6 0 11 5 11 11l0 266c0 59-48 107-107 107z m85-363l-170 0l0 256c0 47 38 86 85 86c47 0 85-39 85-86z m-42 128l0 86c0 17-15 32-32 32c-18 0-32-15-32-32c0-6-5-11-11-11c-6 0-11 5-11 11l0 42c0 6-4 11-10 11c-6 0-11-5-11-11l0-42c0-18 14-32 32-32c18 0 32 14 32 32c0 6 5 10 11 10c6 0 10-4 10-10l0-86c0-17 15-32 32-32c6 0 11 5 11 11c0 6-5 11-11 11c-6 0-10 4-10 10z"/>
<glyph unicode="&#88;" d="M387 395l-113 114c-2 2-4 3-7 3c0 0 0 0 0 0c-3 0-6-1-8-3l-114-114l-145 0l0-395l512 0l0 395z m-120 91l90-91l-182 0z m224-465l-470 0l0 352l470 0z m-22 331l-426 0l0-309l426 0z m-405-21l384 0l0-128l-53 0c-6 0-11-5-11-11l0-53l-32 0c-6 0-11-5-11-11l0-64l-37 0c-17 22-101 133-101 235c0 6-5 10-11 10c-6 0-11-4-11-10c0-101-84-213-101-235l-16 0z m320-267l-21 0l0 53l21 0z m-241 53l98 0c14-22 27-41 36-53l-170 0c9 12 22 31 36 53z m12 22c14 26 28 57 37 89c9-32 23-63 37-89z m250-75l0 117l43 0l0-117z"/>
<glyph unicode="&#89;" d="M501 245c6 0 11 5 11 11c0 6-5 11-11 11l-117 0l0 96l117 0c6 0 11 4 11 10c0 6-5 11-11 11l-117 0l0 117c0 6-5 11-11 11c-6 0-10-5-10-11l0-117l-96 0l0 117c0 6-5 11-11 11c-6 0-11-5-11-11l0-117l-96 0l0 117c0 6-4 11-10 11c-6 0-11-5-11-11l0-117l-117 0c-6 0-11-5-11-11c0-6 5-10 11-10l117 0l0-96l-117 0c-6 0-11-5-11-11c0-6 5-11 11-11l117 0l0-96l-117 0c-6 0-11-4-11-10c0-6 5-11 11-11l117 0l0-117c0-6 5-11 11-11c6 0 10 5 10 11l0 117l96 0l0-117c0-6 5-11 11-11c6 0 11 5 11 11l0 117l96 0l0-117c0-6 4-11 10-11c6 0 11 5 11 11l0 117l117 0c6 0 11 5 11 11c0 6-5 10-11 10l-117 0l0 96z m-138 118l0-96l-96 0l0 96z m-214 0l96 0l0-96l-96 0z m0-214l0 96l96 0l0-96z m214 0l-96 0l0 96l96 0z"/>
<glyph unicode="&#90;" d="M512 405l0 107l-107 0l0-43l-298 0l0 43l-107 0l0-107l53 0l0-298l-53 0l0-107l107 0l0 43l298 0l0-43l107 0l0 107l-43 0l0 298z m-85 86l64 0l0-64l-64 0z m-406 0l64 0l0-64l-64 0z m64-470l-64 0l0 64l64 0z m406 0l-64 0l0 64l64 0z m-43 86l-43 0l0-43l-298 0l0 43l-32 0l0 298l32 0l0 43l298 0l0-43l43 0z"/>
<glyph unicode="&#48;" d="M256 512c-141 0-256-115-256-256c0-141 115-256 256-256c141 0 256 115 256 256c0 141-115 256-256 256z m0-491c-129 0-235 106-235 235c0 129 106 235 235 235c129 0 235-106 235-235c0-129-106-235-235-235z m160 224c-6 0-11-4-11-10c0-83-67-150-149-150c-82 0-149 67-149 150c0 6-5 10-11 10c-6 0-11-4-11-10c0-94 77-171 171-171c94 0 171 77 171 171c0 6-5 10-11 10z m-299 43c6 0 11 5 11 11c0 17 14 32 32 32c18 0 32-15 32-32c0-6 5-11 11-11c6 0 10 5 10 11c0 29-24 53-53 53c-29 0-53-24-53-53c0-6 4-11 10-11z m192 0c6 0 11 5 11 11c0 17 14 32 32 32c18 0 32-15 32-32c0-6 5-11 11-11c6 0 10 5 10 11c0 29-24 53-53 53c-29 0-53-24-53-53c0-6 4-11 10-11z"/>
<glyph unicode="&#49;" d="M512 128c0 26-18 47-43 52l0 1c0 22-13 41-32 49l0 26c0 100-81 181-181 181c-100 0-181-81-181-181l0-23c-19-5-32-21-32-41l0-12c-25-5-43-26-43-52c0-26 18-47 43-52l0-12c0-24 19-43 42-43l22 0c23 0 42 19 42 43l0 128c0 24-19 43-42 43l-11 0l0 21c0 88 72 160 160 160c88 0 160-72 160-160l0-21c-29 0-53-24-53-54l0-106c0-30 24-54 53-54c29 0 53 24 53 54l0 1c25 5 43 26 43 52z m-491 0c0 14 9 26 22 30l0-60c-13 4-22 16-22 30z m107 64l0-128c0-12-10-21-21-21l-22 0c-11 0-21 9-21 21l0 128c0 12 10 21 21 21l22 0c11 0 21-9 21-21z m320-117c0-18-14-32-32-32c-18 0-32 14-32 32l0 106c0 18 14 32 32 32c18 0 32-14 32-32z m21 23l0 60c13-4 22-16 22-30c0-14-9-26-22-30z"/>
<glyph unicode="&#50;" d="M437 224c-6 0-10-5-10-11l0-192l-107 0l0 139l-128 0l0-139l-107 0l0 203c0 6-4 11-10 11c-6 0-11-5-11-11l0-224l149 0l0 139l86 0l0-139l149 0l0 213c0 6-5 11-11 11z m72 18l-253 242l-253-242c-4-4-4-10 0-15c4-4 11-4 15 0l238 228l238-228c2-2 5-3 7-3c3 0 6 1 8 3c4 5 4 11 0 15z m-168 185l64 0l0-64c0-6 5-11 11-11c6 0 11 5 11 11l0 85l-86 0c-6 0-10-5-10-11c0-6 4-10 10-10z"/>
<glyph unicode="&#51;" d="M427 448l-342 0l0-213l342 0z m-22-192l-298 0l0 171l298 0z m-50-171l-16 64l-166 0l-16-64z m-165 43l132 0l6-21l-144 0z m279 87l0 233c0 24-19 43-42 43l-342 0c-23 0-42-19-42-43l0-244l-43-148l0-13c0-24 19-43 43-43l426 0c24 0 43 19 43 43l0 10z m-384 254l342 0c11 0 21-9 21-21l0-235l-384 0l0 235c0 12 10 21 21 21z m-24-277l393 0l33-128l-462 0z m408-171l-426 0c-12 0-22 10-22 22l470 0c0-12-10-22-22-22z"/>
<glyph unicode="&#52;" d="M219 127l0 12l21 0l0 64l-128 0l0-64l22 0l0-12c-68-12-104-51-109-116l-1-11l302 0l-1 11c-5 66-40 104-106 116z m-171-106c7 51 39 78 98 86l9 1l0 52l-21 0l0 21l85 0l0-21l-21 0l0-52l9-1c58-8 88-34 96-86z m433 481c-5 4-11 4-15 0l-50-50l0 47c0 4-2 7-5 9c-2 2-6 3-9 1c-34-11-70-35-102-68c-63-62-90-135-67-172l-27-27c-4-4-4-11 0-15c2-2 5-3 7-3c3 0 6 1 8 3l27 27c8-5 19-8 30-8c32 0 75 19 118 55c3 3 4 8 3 12c-2 4-6 7-10 7l-75 0l21 21l96 0c6 0 11 5 11 11c0 6-5 11-11 11l-74 0l21 21l85 0c4 0 8 2 10 5c28 49 30 90 8 113z m-166-76c25 25 53 46 79 58l0-53l-28-28c0-1 0-1-1-1l-41-42c-1 0-1-1-1-1l-42-42c0 0-1 0-1-1l-31-31c-11 28 11 86 66 141z m42-127c-38-26-73-37-93-29l29 29z m100 106l-58 0l72 72c7-16 2-41-14-72z"/>
<glyph unicode="&#53;" d="M416 512l-320 0c-29 0-53-24-53-53l0-406c0-29 24-53 53-53l320 0c29 0 53 24 53 53l0 406c0 29-24 53-53 53z m32-459c0-17-14-32-32-32l-320 0c-18 0-32 15-32 32l0 406c0 17 14 32 32 32l320 0c18 0 32-15 32-32z m-169 0c0-11-9-21-21-21c-12 0-22 10-22 21c0 12 10 22 22 22c12 0 21-10 21-22z m137 395l-320 0c-6 0-11-5-11-11l0-341c0-6 5-11 11-11l320 0c6 0 11 5 11 11l0 341c0 6-5 11-11 11z m-11-341l-298 0l0 320l298 0z m-137 362c0-6-4-10-10-10c-6 0-11 4-11 10c0 6 5 11 11 11c6 0 10-5 10-11z"/>
<glyph unicode="&#54;" d="M373 512l-234 0c-30 0-54-24-54-53l0-406c0-29 24-53 54-53l234 0c30 0 54 24 54 53l0 406c0 29-24 53-54 53z m-266-107l298 0l0-298l-298 0z m32 86l234 0c18 0 32-15 32-32l0-32l-298 0l0 32c0 17 14 32 32 32z m234-470l-234 0c-18 0-32 15-32 32l0 32l298 0l0-32c0-17-14-32-32-32z m-96 32c0-11-9-21-21-21c-12 0-21 10-21 21c0 12 9 22 21 22c12 0 21-10 21-22z m-74 395l106 0c6 0 11 5 11 11c0 6-5 10-11 10l-106 0c-6 0-11-4-11-10c0-6 5-11 11-11z"/>
<glyph unicode="&#55;" d="M171 256c-59 0-107-48-107-107c0-58 48-106 107-106c58 0 106 48 106 106c0 59-48 107-106 107z m0-192c-47 0-86 38-86 85c0 47 39 86 86 86c47 0 85-39 85-86c0-47-38-85-85-85z m0 149c-36 0-64-28-64-64c0-35 28-64 64-64c35 0 64 29 64 64c0 36-29 64-64 64z m0-106c-24 0-43 19-43 42c0 24 19 43 43 43c23 0 42-19 42-43c0-23-19-42-42-42z m245 362l-171 0l0 22l-75 0c-9 13-25 21-42 21c-29 0-53-24-53-53c0-30 24-54 53-54c17 0 33 9 42 22l75 0l0 21l171 0c29 0 53-24 53-53l0-331c0-24-19-43-42-43c-24 0-43 19-43 43l0 171c0 23-19 42-43 42l-21 0l0 32c0 18-14 32-32 32l-235 0c-17 0-32-14-32-32l0-256c0-29 24-53 54-53l192 0c29 0 53 24 53 53l0 203l21 0c12 0 22-10 22-21l0-171c0-35 28-64 64-64c35 0 64 29 64 64l0 331c0 41-34 74-75 74z m-288-42c-18 0-32 14-32 32c0 17 14 32 32 32c18 0 32-15 32-32c0-18-14-32-32-32z m96 21l-43 0l0 21l43 0z m-171-128l235 0c6 0 11-5 11-11c0-6-5-10-11-10l-235 0c-6 0-10 4-10 10c0 6 4 11 10 11z m214-299l-192 0c-18 0-32 15-32 32l0 226c3-1 7-2 10-2l235 0c4 0 7 1 11 2l0-226c0-17-15-32-32-32z m-128 438c0-6-5-11-11-11c-6 0-11 5-11 11c0 6 5 10 11 10c6 0 11-4 11-10z"/>
<glyph unicode="&#56;" d="M373 512l-234 0c-30 0-54-24-54-53l0-406c0-29 24-53 54-53l234 0c30 0 54 24 54 53l0 406c0 29-24 53-54 53z m32-459c0-17-14-32-32-32l-234 0c-18 0-32 15-32 32l0 406c0 17 14 32 32 32l234 0c18 0 32-15 32-32z m-32 416l-234 0c-6 0-11-4-11-10l0-171c0-6 5-11 11-11l234 0c6 0 11 5 11 11l0 171c0 6-5 10-11 10z m-10-170l-214 0l0 149l214 0z m-107-43c-59 0-107-48-107-107c0-58 48-106 107-106c59 0 107 48 107 106c0 59-48 107-107 107z m0-192c-47 0-85 38-85 85c0 47 38 86 85 86c47 0 85-39 85-86c0-47-38-85-85-85z m0 149c-35 0-64-28-64-64c0-35 29-64 64-64c35 0 64 29 64 64c0 36-29 64-64 64z m0-106c-24 0-43 19-43 42c0 24 19 43 43 43c24 0 43-19 43-43c0-23-19-42-43-42z"/>
<glyph unicode="&#57;" d="M480 341c-14 0-26-9-30-21l-2 0c-24 0-43-19-43-43c0-23 19-42 43-42l2 0c3-9 10-16 19-20l0-151c0-24-19-43-42-43c-24 0-43 19-43 43l0 352c0 24-19 43-43 43c0 29-24 53-53 53l-235 0c-29 0-53-24-53-53l0-406c0-29 24-53 53-53l235 0c29 0 53 24 53 53l0 384c12 0 22-9 22-21l0-352c0-35 28-64 64-64c35 0 64 29 64 64l0 151c12 5 21 16 21 30l0 64c0 18-14 32-32 32z m-459 64l299 0l0-298l-299 0z m32 86l235 0c18 0 32-15 32-32l0-32l-299 0l0 32c0 17 15 32 32 32z m235-470l-235 0c-17 0-32 15-32 32l0 32l299 0l0-32c0-17-14-32-32-32z m139 256c0 12 9 22 21 22l0-43c-12 0-21 10-21 21z m64-32c0-6-5-10-11-10c-6 0-11 4-11 10l0 64c0 6 5 11 11 11c6 0 11-5 11-11z m-299-192c0-11-10-21-21-21c-12 0-22 10-22 21c0 12 10 22 22 22c11 0 21-10 21-22z m-11 406c0-6-4-11-10-11c-6 0-11 5-11 11c0 6 5 10 11 10c6 0 10-4 10-10z"/>
<glyph unicode="&#33;" d="M437 331c-12 0-24-3-35-9c-2 5-5 9-9 14c0 1-1 2-2 2c-24 32-60 55-100 64c5 7 8 15 8 25c0 23-19 42-43 42c-24 0-43-19-43-42c0-10 3-18 8-25c-40-9-76-32-100-64c-1 0-2-1-2-2c-19-26-31-57-33-90c-14 3-33 14-33 63c0 39-26 54-42 54c-6 0-11-5-11-11c0-6 5-11 11-11c6 0 21-5 21-32c0-64 30-81 54-84c2-34 13-66 34-93c2-2 5-4 8-4l256 0c3 0 6 2 8 4c12 16 21 33 27 52c6-2 12-3 18-3c41 0 75 34 75 75c0 41-34 75-75 75z m-77 10l-208 0c27 27 63 43 104 43c41 0 77-16 104-43z m-125 86c0 11 9 21 21 21c12 0 21-10 21-21c0-12-9-22-21-22c-12 0-21 10-21 22z m143-278l-244 0c-18 26-27 55-27 86c0 31 10 61 27 85l244 0c17-24 27-54 27-85c0-31-9-60-27-86z m59 54c-4 0-9 0-13 2c2 9 3 19 3 30c0 24-6 47-15 68c8 4 16 6 25 6c30 0 54-24 54-53c0-29-24-53-54-53z m22-96l-406 0c-6 0-10-5-10-11c0-6 4-11 10-11l43 0l0-21c0-6 5-11 11-11c6 0 10 5 10 11l0 21l299 0l0-21c0-6 5-11 11-11c6 0 10 5 10 11l0 21l22 0c6 0 10 5 10 11c0 6-4 11-10 11z"/>
<glyph unicode="&#34;" d="M501 139l-490 0c-6 0-11-5-11-11l0-21c0-18 14-32 32-32l448 0c18 0 32 14 32 32l0 21c0 6-5 11-11 11z m-10-32c0-6-5-11-11-11l-448 0c-6 0-11 5-11 11l0 10l470 0z m-416 53l362 0c18 0 32 14 32 32l0 213c0 18-14 32-32 32l-362 0c-18 0-32-14-32-32l0-213c0-18 14-32 32-32z m-11 245c0 6 5 11 11 11l362 0c6 0 11-5 11-11l0-213c0-6-5-11-11-11l-362 0c-6 0-11 5-11 11z m363-10l-342 0l0-192l342 0z m-22-171l-298 0l0 149l298 0z"/>
<glyph unicode="&#35;" d="M383 477c-48 0-102-27-127-88c-25 61-79 88-127 88c-62 0-129-45-129-144c0-73 42-150 126-227c62-57 122-92 125-94c1-1 3-1 5-1c2 0 4 0 5 1c3 2 63 37 125 94c84 77 126 154 126 227c0 99-67 144-129 144z m-127-443c-35 22-235 151-235 299c0 84 56 123 108 123c48 0 102-33 117-106c0-5 5-9 10-9c5 0 10 4 10 9c15 73 69 106 117 106c52 0 108-39 108-123c0-148-200-277-235-299z"/>
<glyph unicode="&#36;" d="M256 165l-68-67c-10-10-23-16-38-16c-14 0-27 6-37 16l-15 15c-21 20-21 54 0 75l98 98c10 10 23 16 37 16c15 0 28-6 38-16l15-15c4-4 11-4 15 0c4 4 4 11 0 15l-15 15c-14 14-33 22-53 22c-20 0-38-8-52-22l-98-98c-30-29-30-76 0-105l15-15c14-15 32-22 52-22c20 0 39 7 53 22l68 67c4 5 4 11 0 15c-4 5-11 5-15 0z m173 249l-15 15c-29 30-76 30-105 0l-68-67c-4-5-4-11 0-15c4-5 11-5 15 0l68 67c21 21 55 21 75 0l15-15c21-20 21-54 0-75l-98-98c-10-10-23-16-37-16c-15 0-28 6-38 16c-4 4-11 4-15 0c-4-4-4-11 0-15c14-14 33-22 53-22c20 0 38 8 52 22l98 98c30 29 30 76 0 105z"/>
<glyph unicode="&#37;" d="M245 174l0-57c0-6 5-10 11-10c6 0 11 4 11 10l0 57c6 3 10 10 10 18c0 12-9 21-21 21c-12 0-21-9-21-21c0-8 4-15 10-18z m139 146l0 64c0 71-57 128-128 128c-71 0-128-57-128-128l0-64l-64 0l0-320l384 0l0 320z m-235 64c0 59 48 107 107 107c59 0 107-48 107-107l0-64l-214 0z m278-363l-342 0l0 278l342 0z"/>
<glyph unicode="&#38;" d="M245 174l0-57c0-6 5-10 11-10c6 0 11 4 11 10l0 57c6 3 10 10 10 18c0 12-9 21-21 21c-12 0-21-9-21-21c0-8 4-15 10-18z m139 146l0 64c0 71-57 128-128 128c-71 0-128-57-128-128l21 0c0 59 48 107 107 107c59 0 107-48 107-107l0-64l-299 0l0-320l384 0l0 320z m43-299l-342 0l0 278l342 0z"/>
<glyph unicode="&#39;" d="M405 512l-298 0c-36 0-64-29-64-64l0-352c0-14 9-26 21-30l0-55c0-6 5-11 11-11l362 0c6 0 11 5 11 11l0 55c12 4 21 16 21 30l0 352c0 35-28 64-64 64z m22-491l-342 0l0 43l342 0z m21 75c0-6-5-11-11-11l-362 0c-6 0-11 5-11 11l0 352c0 24 19 43 43 43l298 0c24 0 43-19 43-43z m-57 373l-270 0c-20 0-36-13-36-30l0-217c0-17 16-30 36-30l270 0c20 0 36 13 36 30l0 217c0 17-16 30-36 30z m14-247c0-4-5-9-14-9l-270 0c-9 0-14 5-14 9l0 217c0 4 5 9 14 9l270 0c9 0 14-5 14-9z m-256-73l-42 0c-6 0-11-4-11-10c0-6 5-11 11-11l42 0c6 0 11 5 11 11c0 6-5 10-11 10z m256 0l-106 0c-6 0-11-4-11-10c0-6 5-11 11-11l106 0c6 0 11 5 11 11c0 6-5 10-11 10z m-213 246c0 6-5 10-11 10c-6 0-10-4-10-10l0-43c0-6 4-11 10-11c6 0 11 5 11 11z m139 10c-6 0-11-4-11-10l0-43c0-6 5-11 11-11c6 0 10 5 10 11l0 43c0 6-4 10-10 10z m-86-106l22 0c6 0 10 4 10 10l0 64c0 6-4 11-10 11c-6 0-11-5-11-11l0-53l-11 0c-6 0-10-5-10-11c0-6 4-10 10-10z m64-22c-6 0-10-4-10-10c0-6-5-11-11-11l-64 0c-6 0-11 5-11 11c0 6-4 10-10 10c-6 0-11-4-11-10c0-18 14-32 32-32l64 0c18 0 32 14 32 32c0 6-5 10-11 10z"/>
<glyph unicode="&#40;" d="M486 350l-41 40l32 61c4 7 3 16-3 21c-3 4-8 6-13 6c-2 0-5-1-8-2l-61-33l-42 43c-3 3-8 5-13 5c-3 0-6-1-9-2c-7-4-10-13-8-21l13-53l-64-30c-7-3-11-11-10-19c1-8 8-14 16-15l54-7l-283-283c-4-4-4-11 0-15c2-2 5-3 7-3c3 0 6 1 8 3l285 285l7-58c1-8 7-15 15-16c1 0 2 0 3 0c7 0 13 4 16 10l30 65l52-12c1-1 3-1 4-1c6 0 13 4 16 9c4 7 3 16-3 22z m-79 3l-36-78l-11 84l-83 10l78 36l-18 68l52-52l72 38l-38-72l50-50z"/>
<glyph unicode="&#41;" d="M509 252l-60 61c-4 4-12 4-16 0l-169-169c-16-16-37-25-60-25c-23 0-44 9-60 25c-34 33-34 87 0 120l169 169c2 2 3 5 3 8c0 3-1 6-3 8l-61 60c-4 4-10 4-15 0l-173-174c-75-74-75-196 0-271c36-36 84-56 136-56c51 0 99 20 135 56l174 173c2 2 3 5 3 8c0 3-1 5-3 7z m-264 234l45-45l-30-30l-45 45z m75-407c-32-32-75-50-120-50c-46 0-89 18-121 50c-67 66-67 175 0 241l121 121l45-45l-116-117c-42-41-42-109 0-150c20-21 47-32 75-32c29 0 55 11 75 32l117 116l45-45z m136 136l-45 45l30 30l45-45z"/>
<glyph unicode="&#42;" d="M461 143l-130 36l0 38c38 29 64 78 64 135c0 88-62 160-139 160c-76 0-138-72-138-160c0-56 25-106 63-134l0-39l-131-36c-30-11-50-39-50-71l0-72l512 0l0 72c0 32-20 60-51 71z m-205 348c51 0 94-39 110-93c-4-4-10-6-18-6c-21 1-50 19-61 40l-10 17l-9-18c-9-18-25-28-46-32c-28-5-58 5-71 11c18 48 59 81 105 81z m-116-139c0 13 1 26 4 38c20-10 52-17 82-12c22 4 39 14 52 30c18-21 46-36 70-37c0 0 1 0 2 0c8 0 15 2 21 5c2-8 2-16 2-24c0-76-52-139-117-139c-64 0-116 63-116 139z m350-331l-468 0l0 51c0 23 14 43 34 50l147 41l0 42c16-9 34-13 53-13c19 0 37 4 53 12l0-41l146-41c21-7 35-27 35-50z"/>
<glyph unicode="&#43;" d="M256 512c-94 0-171-77-171-171c0-90 156-316 162-326l9-12l9 12c6 10 162 236 162 326c0 94-77 171-171 171z m0-472c-33 50-149 229-149 301c0 83 67 150 149 150c82 0 149-67 149-150c0-72-116-251-149-301z m0 376c-41 0-75-33-75-75c0-41 34-74 75-74c41 0 75 33 75 74c0 42-34 75-75 75z m0-128c-29 0-53 24-53 53c0 30 24 54 53 54c29 0 53-24 53-54c0-29-24-53-53-53z"/>
<glyph unicode="&#44;" d="M256 363c41 0 75 33 75 74c0 41-34 75-75 75c-41 0-75-34-75-75c0-41 34-74 75-74z m0 128c29 0 53-24 53-54c0-29-24-53-53-53c-29 0-53 24-53 53c0 30 24 54 53 54z m-43-289l0-85c0-6 5-10 11-10l64 0c6 0 11 4 11 10l0 85c47 25 64 90 64 139c0 6-5 11-11 11l-192 0c-6 0-11-5-11-11c0-49 17-114 64-139z m128 129c-2-38-16-95-57-112c-4-2-7-6-7-10l0-81l-42 0l0 81c0 4-3 8-7 10c-41 17-55 74-57 112z m-85-256c-86 0-136 17-139 26c1 2 13 13 55 20c6 1 10 7 9 13c-1 6-6 9-12 8c-49-8-73-22-73-41c0-38 101-48 160-48c59 0 160 10 160 48c0 19-24 33-72 41c-6 1-12-2-13-8c-1-6 3-12 9-13c43-7 54-18 55-19c-3-10-53-27-139-27z m87 112c-6 0-11-4-12-10c-1-5 3-11 9-12c99-12 151-44 151-69c0-35-97-75-235-75c-138 0-235 40-235 75c0 25 52 57 151 69c6 1 10 7 9 12c-1 6-6 10-12 10c-82-11-169-40-169-91c0-47 90-96 256-96c166 0 256 49 256 96c0 51-87 80-169 91z"/>
<glyph unicode="&#45;" d="M427 299c-6 0-11-5-11-11l0-32l-21 0l0 117c0 60-38 111-92 130c0 1-1 1-1 1c-15 5-30 8-46 8c-16 0-31-3-46-8c0 0-1 0-1-1c-54-19-92-70-92-130l0-117l-21 0l0 32c0 6-5 11-11 11c-6 0-10-5-10-11l0-43c0-98 74-175 170-180l0-65l22 0l0 65c96 5 170 82 170 180l0 43c0 6-4 11-10 11z m-288-22l74 0c6 0 11 5 11 11c0 6-5 11-11 11l-74 0l0 21l74 0c6 0 11 5 11 11c0 6-5 10-11 10l-74 0l0 22l74 0c6 0 11 4 11 10c0 6-5 11-11 11l-74 0c4 41 29 76 64 94l0-41c0-6 4-10 10-10c6 0 11 4 11 10l0 49c7 2 14 3 21 4l0-53c0-6 5-10 11-10c6 0 11 4 11 10l0 53c7-1 14-2 21-4l0-49c0-6 5-10 11-10c6 0 10 4 10 10l0 41c35-18 60-53 64-94l-74 0c-6 0-11-5-11-11c0-6 5-10 11-10l74 0l0-22l-74 0c-6 0-11-4-11-10c0-6 5-11 11-11l74 0l0-21l-74 0c-6 0-11-5-11-11c0-6 5-11 11-11l74 0l0-21l-234 0z m234-42c-6-60-56-107-117-107c-61 0-111 47-117 107z m-117-150c-86 0-154 65-159 150l21 0c5-72 65-128 138-128c73 0 133 56 138 128l21 0c-5-85-73-150-159-150z"/>
<glyph unicode="&#46;" d="M348 508c-64 0-117-52-117-117c0-65 53-117 117-117c65 0 118 52 118 117c0 65-53 117-118 117z m0-213c-52 0-96 43-96 96c0 53 44 96 96 96c53 0 96-43 96-96c0-53-43-96-96-96z m160 107c0-6-4-11-10-11c-6 0-11 5-11 11c0 6 5 10 11 10c6 0 10-4 10-10z m-10-22c-6 0-11-4-11-10l0-342c0-5 5-10 11-10c6 0 10 5 10 10l0 342c0 6-4 10-10 10z m-102-267c-5 2-11 0-14-4c-9-14-24-22-40-22c-18 0-36 11-36 37c0 45-36 69-69 69c-14 0-27-4-38-12c-10 8-23 12-38 12c-33 0-69-24-69-69c0-11-3-21-11-28c-6-6-15-9-25-9c-16 0-30 8-40 22c-3 4-9 6-13 4c-5-2-8-8-6-13c14-55 51-86 102-86c39 0 78 19 100 48c22-29 61-48 100-48c51 0 88 31 102 86c2 5-1 11-5 13z m-97-78c-37 0-76 22-90 52c-2 3-6 5-10 5c-4 0-8-2-9-5c-15-30-54-52-91-52c-18 0-46 5-66 34c7-2 15-4 23-4c0 0 0 0 0 0c15 0 30 6 40 16c12 11 18 26 18 43c0 32 24 48 47 48c12 0 23-4 30-12c4-5 12-5 16 0c7 8 18 12 30 12c23 0 47-16 47-48c0-38 30-59 58-59c8 0 16 2 23 4c-20-29-48-34-66-34z m103 356c0-29-24-53-54-53c-5 0-10-5-10-11c0-6 5-11 10-11c42 0 75 34 75 75c0 6-5 11-11 11c-5 0-10-5-10-11z"/>
<glyph unicode="&#47;" d="M192 402l0-253l-43 0c-35 0-64-28-64-64c0-35 29-64 64-64c34 0 64 30 64 64l0 228l192 77l0-177l-42 0c-36 0-64-28-64-64c0-35 28-64 64-64c34 0 64 30 64 64l0 347z m0-317c0-20-18-42-43-42c-23 0-42 19-42 42c0 24 19 43 42 43l43 0z m213 64c0-20-18-42-42-42c-24 0-43 19-43 42c0 24 19 43 43 43l42 0z m-192 187l0 51l192 77l0-51z"/>
<glyph unicode="&#58;" d="M469 448c0-12-9-21-21-21c-12 0-21 9-21 21c0 12 9 21 21 21c12 0 21-9 21-21z m-384 0c0-12-9-21-21-21c-12 0-21 9-21 21c0 12 9 21 21 21c12 0 21-9 21-21z m384-384c0-12-9-21-21-21c-12 0-21 9-21 21c0 12 9 21 21 21c12 0 21-9 21-21z m-384 0c0-12-9-21-21-21c-12 0-21 9-21 21c0 12 9 21 21 21c12 0 21-9 21-21z m171 245c-29 0-53-24-53-53c0-29 24-53 53-53c29 0 53 24 53 53c0 29-24 53-53 53z m0-85c-18 0-32 14-32 32c0 18 14 32 32 32c18 0 32-14 32-32c0-18-14-32-32-32z m0 224c-106 0-192-86-192-192c0-106 86-192 192-192c106 0 192 86 192 192c0 106-86 192-192 192z m0-363c-94 0-171 77-171 171c0 94 77 171 171 171c94 0 171-77 171-171c0-94-77-171-171-171z m205 57c19 35 30 74 30 114c0 40-11 79-30 114l32 33c12 12 19 28 19 45c0 17-7 33-19 45c-12 12-28 19-45 19c-17 0-33-7-45-19l-33-32c-35 19-74 30-114 30c-40 0-79-11-114-30l-33 32c-12 12-28 19-45 19c-17 0-33-7-45-19c-12-12-19-28-19-45c0-17 7-33 19-45l32-33c-19-35-30-74-30-114c0-40 11-79 30-114l-32-33c-12-12-19-28-19-45c0-17 7-33 19-45c12-12 28-19 45-19c17 0 33 7 45 19l33 32c35-19 74-30 114-30c40 0 79 11 114 30l33-32c12-12 28-19 45-19c17 0 33 7 45 19c12 12 19 28 19 45c0 17-7 33-19 45z m17-108c-8-8-19-13-30-13c-11 0-22 5-30 13l-44 44l-8-4c-33-21-71-31-110-31c-39 0-77 10-110 31l-8 4l-44-44c-8-8-19-13-30-13c-11 0-22 5-30 13c-8 8-13 19-13 30c0 11 5 22 13 30l44 44l-4 8c-21 33-31 71-31 110c0 39 10 77 31 110l4 8l-44 44c-8 8-13 19-13 30c0 11 5 22 13 30c8 8 19 13 30 13c11 0 22-5 30-13l44-44l8 4c33 21 71 31 110 31c39 0 77-10 110-31l8-4l44 44c8 8 19 13 30 13c11 0 22-5 30-13c8-8 13-19 13-30c0-11-5-22-13-30l-44-44l4-8c21-33 31-71 31-110c0-39-10-77-31-110l-4-8l44-44c8-8 13-19 13-30c0-11-5-22-13-30z"/>
<glyph unicode="&#59;" d="M331 427l-150 0l0-107l150 0z m-22-86l-106 0l0 64l106 0z m139 118l-11 0l0 53l-384 0l0-85l-21 0l0-22l21 0l0-42l-21 0l0-22l21 0l0-42l-21 0l0-22l21 0l0-42l-21 0l0-22l21 0l0-42l-21 0l0-22l21 0l0-42l-21 0l0-22l21 0l0-85l384 0l0 96l11 0c24 0 43 19 43 43l0 277c0 24-19 43-43 43z m0-22c12 0 21-9 21-21l0-43l-32 0l0 64z m-11-149l0 64l32 0l0-64z m32-21l0-64l-32 0l0 64z m-53-246l-341 0l0 64l21 0l0 22l-21 0l0 42l21 0l0 22l-21 0l0 42l21 0l0 22l-21 0l0 42l21 0l0 22l-21 0l0 42l21 0l0 22l-21 0l0 42l21 0l0 22l-21 0l0 64l341 0z m32 96l-11 0l0 64l32 0l0-42c0-12-9-22-21-22z"/>
<glyph unicode="&#60;" d="M480 277c0 26-18 48-43 53l0 22c0 88-71 160-160 160l-64 0c-88 0-160-72-160-160l0-22c-24-5-42-27-42-53c0-25 18-47 42-52l0-166c0-41 100-59 192-59c93 0 192 18 192 59l0 166c25 5 43 27 43 52z m-267 214l64 0c68 0 125-50 137-114c-35 19-104 28-169 28c-65 0-133-9-168-28c12 64 68 114 136 114z m32-107c111 0 171-25 171-37c0-13-60-38-171-38c-110 0-170 25-170 38c0 12 60 37 170 37z m-213-107c0 14 9 26 21 31l0-61c-12 5-21 16-21 30z m384-218c0-13-60-38-171-38c-110 0-170 25-170 38l0 259c34-20 104-30 170-30c67 0 137 10 171 30z m21 188l0 61c13-5 22-17 22-31c0-14-9-25-22-30z m-56 15c-6-2-13-4-21-6l-8-1l0-95c0-18-14-32-32-32c-8 0-17 3-23 9c-6 6-9 14-9 23c0 21 0 43 0 59l0 26l-64 0l0-42c0-12-10-22-21-22c-12 0-22 10-22 22l0 47l-10 1c-22 1-43 5-61 10c-6 2-12-1-14-7c-1-5 2-11 7-13c17-5 37-9 57-11l0-27c0-24 19-43 43-43c23 0 42 19 42 43l0 21l22 0l0-5c0-16 0-38 0-59c0-14 5-28 15-38c10-10 24-15 38-15c29 0 53 24 53 53l0 78c5 1 10 2 14 4c6 1 9 7 7 13c-2 6-7 9-13 7z"/>
<glyph unicode="&#61;" d="M267 501c-124 0-224-115-224-256c0-176 149-235 217-235l0 0c15 0 34 2 44 14c5 6 7 13 5 21c-11 53-2 87 9 101c4 5 8 7 13 7c9 0 21-9 31-25c14-20 30-30 46-30c51 0 83 97 83 147c0 149-95 256-224 256z m141-382c-11 0-21 12-28 22c-19 27-37 33-49 33c-11 0-22-5-30-15c-18-22-23-67-13-118c1-2 0-3 0-3c-3-3-12-7-28-7l0 0c-61 0-196 54-196 214c0 130 91 235 203 235c117 0 202-99 202-235c0-51-32-126-61-126z m-205 62c-30 0-54-24-54-53c0-29 24-53 54-53c29 0 53 24 53 53c0 29-24 53-53 53z m0-85c-18 0-32 14-32 32c0 18 14 32 32 32c17 0 32-14 32-32c0-18-15-32-32-32z m-22 171c0 11-4 22-12 30c-8 8-19 12-30 12c-12 0-22-4-30-12c-9-8-13-19-13-30c0-24 19-43 43-43c0 0 0 0 0 0c11 0 22 4 30 13c8 8 12 18 12 30z m-27-15c-4-4-10-7-15-7l0-10l0 10c-12 0-22 10-22 22c0 5 3 11 7 15c4 4 9 6 15 6c5 0 11-2 15-6c4-4 6-10 6-15c0-6-2-11-6-15z m38 68c0 0 0 0 0 0c11 0 22 4 30 13c8 8 13 18 13 30c0 11-5 22-13 30c-8 8-19 12-30 12c-11 0-22-4-30-12c-8-8-13-19-13-30c0-24 19-43 43-43z m-15 58c4 4 9 6 15 6c6 0 11-2 15-6c4-4 6-10 6-15c0-6-2-11-6-15c-4-4-9-7-15-7l0-10l0 10c-12 0-21 10-21 22c0 5 2 11 6 15z m111 70c-11 0-22-4-30-13c-8-8-13-18-13-30c0-23 19-42 43-42c0 0 0 0 0 0c11 0 22 4 30 12c8 8 13 19 13 30c0 12-5 22-13 30c-8 9-19 13-30 13z m15-58c-4-4-9-6-15-6l0-11l0 11c-12 0-21 10-21 21c0 6 2 11 6 15c4 4 9 7 15 7c6 0 11-3 15-7c4-4 6-9 6-15c0-5-2-11-6-15z m81-17c-11 0-22-4-30-12c-8-8-13-19-13-30c0-24 19-43 43-43c0 0 0 0 0 0c11 0 22 4 30 13c8 8 13 18 13 30c0 11-5 22-13 30c-8 8-19 12-30 12z m15-57c-4-4-9-7-15-7l0-10l0 10c-12 0-21 10-21 22c0 5 2 11 6 15c4 4 9 6 15 6c6 0 11-2 15-6c4-4 6-10 6-15c0-6-2-11-6-15z"/>
<glyph unicode="&#62;" d="M448 427l-21 0l0 21c0 24-19 43-43 43l-256 0c-24 0-43-19-43-43l0-21c-27 0-42-16-42-43l0-43c0-27 15-42 42-42l160 0c6 0 11-5 11-11l0-87c-20-4-32-23-32-52l0-117c0-18 14-32 32-32l21 0c18 0 32 14 32 32l0 117c0 29-11 48-32 52l0 87c0 18-14 32-32 32l-160 0c-15 0-21 6-21 21l0 43c0 15 6 21 21 21l0-21c0-24 19-43 43-43l256 0c24 0 43 19 43 43l0 21l21 0z m-160-278l0-117c0-6-5-11-11-11l-21 0c-6 0-11 5-11 11l0 117c0 32 16 32 22 32c5 0 21 0 21-32z m117 235c0-12-9-21-21-21l-256 0c-12 0-21 9-21 21l0 64c0 12 9 21 21 21l256 0c12 0 21-9 21-21z"/>
<glyph unicode="&#63;" d="M509 449l-60 60c-2 2-5 3-8 3c-3 0-5-1-7-3l-9-8c-20 13-49 11-67-7l-120-121c-5-4-5-11 0-15c2-2 4-3 7-3c3 0 6 1 8 3l120 121c10 10 25 12 37 6l-308-308c-4-4-4-11 0-15l4-4c-4 1-7 1-10 1c-17 0-33-7-45-19c-40-39-40-116-40-119c0 0 0 0 0 0l0-11l10 0c4 0 80 1 120 41c12 12 18 28 18 45c0 3 0 6-1 9l4-3c2-2 5-4 8-4c3 0 5 2 7 4l211 211c0 0 0 0 0 0c0 0 0 0 0 0l121 120c4 5 4 11 0 16z m-383-383c-20-20-53-28-76-32l39 40c4 4 4 11 0 15c-4 4-11 4-15 0l-40-40c4 24 12 57 32 76c8 8 19 13 30 13c11 0 22-5 30-13c8-8 12-18 12-29c0-12-4-22-12-30z m44 58l-46 45l197 197l45-46z m211 211l-45 46l105 105l45-45z"/>
<glyph unicode="&#64;" d="M509 448l-61 61c-2 2-4 3-7 3c-3 0-6-1-8-3l-8-9c-21 14-49 12-67-6l-121-121c-4-4-4-11 0-15c2-2 5-3 8-3c2 0 5 1 7 3l121 121c10 9 24 11 36 6l-346-346c-4-4-4-11 0-15l8-8l-38-37c-2-2-3-5-3-8c0-3 1-6 3-8l8-7l-38-38c-4-4-4-11 0-15c2-2 5-3 8-3c2 0 5 1 7 3l38 38l7-8c3-2 5-3 8-3c3 0 5 1 8 3l37 38l8-8c2-2 5-3 7-3c3 0 6 1 8 3l370 370c4 4 4 11 0 15z m-438-392l-15 15l30 30l15-15z m60 30l-37 38c0 0 0 0 0 0c0 0 0 0 0 0l-8 7l234 234l45-45z m249 249l-45 45l106 106l45-45z"/>
<glyph unicode="&#91;" d="M336 419l69 93l-298 0l69-93c-25-17-91-67-91-142c0-87 125-265 130-272l3-5l76 0l3 5c5 7 130 185 130 272c0 75-66 125-91 142z m27 72l-48-64l-118 0l-48 64z m-81-470l-15 0l0 214l-22 0l0-214l-15 0c-20 29-123 183-123 256c0 71 74 120 88 128l122 0c14-8 88-57 88-128c0-73-103-227-123-256z m27 267c0 29-24 53-53 53c-29 0-53-24-53-53c0-29 24-53 53-53c29 0 53 24 53 53z m-53-32c-18 0-32 14-32 32c0 18 14 32 32 32c18 0 32-14 32-32c0-18-14-32-32-32z"/>
<glyph unicode="&#93;" d="M299 378l0 27l19 0l26 107l-176 0l26-107l19 0l0-27c-52-16-85-61-85-122c0-61 50-148 86-212c8-14 16-27 22-38l3-6l34 0l3 6c6 11 14 24 22 38c36 64 86 151 86 212c0 61-33 106-85 122z m-104 113l122 0l-16-64l-90 0z m40-86l42 0l0-23c-7 1-14 2-21 2c-7 0-14-1-21-2z m21-192c-12 0-21 10-21 22c0 11 9 21 21 21c12 0 21-10 21-21c0-12-9-22-21-22z m23-158c-4-8-8-15-12-22l0 161c18 4 32 21 32 41c0 23-19 42-43 42c-24 0-43-19-43-42c0-20 14-37 32-41l0-161c-4 7-8 14-12 22c-35 61-84 146-84 201c0 65 42 107 107 107c65 0 107-42 107-107c0-55-49-140-84-201z"/>
<glyph unicode="&#94;" d="M427 139l-342 0l0 213l22 0l0 21l-32 0c-6 0-11-4-11-10l0-235c0-6 5-11 11-11l362 0c6 0 11 5 11 11l0 53l-21 0z m74 320l-362 0c-6 0-11-5-11-11l0-235c0-6 5-10 11-10l362 0c6 0 11 4 11 10l0 235c0 6-5 11-11 11z m-10-235l-342 0l0 213l342 0z m-128-171l-342 0l0 214l22 0l0 21l-32 0c-6 0-11-5-11-11l0-234c0-6 5-11 11-11l362 0c6 0 11 5 11 11l0 53l-21 0z"/>
<glyph unicode="&#95;" d="M0 512l0-512l512 0l0 512z m491-21l0-342l-15 0l-73 145c-7 16-23 26-41 26c-17 0-32-9-40-23l-57-97c-16 20-52 56-94 56c-53 0-92-81-103-107l-47 0l0 342z m-39-342l-361 0c16 33 47 86 80 86c47 0 86-59 87-60c2-3 5-5 9-4c4 0 7 2 9 5l64 110c5 8 13 13 22 13c9 0 18-6 22-14z m-431-128l0 107l470 0l0-107z m118 299l64 0c35 0 64 29 64 64c0 35-29 64-64 64c-28 0-52-17-61-43c-24 2-46-18-46-42c0-24 19-43 43-43z m0 64c2 0 5-1 7-2l13-4l2 13c3 21 21 36 42 36c23 0 42-19 42-43c0-24-19-43-42-43l-64 0c-12 0-22 10-22 22c0 11 10 21 22 21z"/>
<glyph unicode="&#96;" d="M491 395l0-374l-374 0l0-21l395 0l0 395z m-22 64l-21 0l0-395l-395 0l0-21l416 0z m-42-288l0 341l-427 0l0-427l427 0z m-406 320l384 0l0-299l-35 0l-61 164c-2 3-5 6-9 7c-4 0-8-2-10-5l-78-116l-44 53c-2 2-5 4-9 4c-3-1-6-3-8-6l-61-101l-69 0z m326-299l-232 0l46 78l44-53c2-2 6-4 9-4c3 1 6 2 8 5l74 111z m-326-85l0 64l384 0l0-64z m107 256c24 0 43 19 43 42c0 24-19 43-43 43c-24 0-43-19-43-43c0-23 19-42 43-42z m0 64c12 0 21-10 21-22c0-11-9-21-21-21c-12 0-21 10-21 21c0 12 9 22 21 22z"/>
<glyph unicode="&#123;" d="M256 395l43 0c6 0 10 4 10 10c0 6-4 11-10 11l-43 0c-6 0-11-5-11-11c0-6 5-10 11-10z m139-22l-118 0c-6 0-10-4-10-10c0-6 4-11 10-11l118 0c6 0 10 5 10 11c0 6-4 10-10 10z m-150-64l139 0c6 0 11 5 11 11c0 6-5 11-11 11l-139 0c-6 0-10-5-10-11c0-6 4-11 10-11z m150-21l-150 0c-6 0-10-5-10-11c0-6 4-10 10-10l150 0c6 0 10 4 10 10c0 6-4 11-10 11z m-22-64c6 0 11 5 11 11c0 6-5 10-11 10l-128 0c-6 0-10-4-10-10c0-6 4-11 10-11z m11-21l-149 0c-6 0-11-5-11-11c0-6 5-11 11-11l149 0c6 0 11 5 11 11c0 6-5 11-11 11z m96 309l-266 0c-25 0-32-28-33-43c0-2 2-192-19-309l-98 0c-9 0-17-3-23-9c-12-12-12-34-12-58c0-21 1-44-10-55c-4-4-10-6-19-6l0-21l266 0c15 0 26 4 35 12c8 8 11 19 14 30l79 0c9 0 18 4 25 12c45 46 51 250 50 351l43 0l0 11c0 32-4 85-32 85z m-194-474c-5-4-11-6-20-6l-225 0c10 17 10 40 10 61c0 18-1 37 6 43c1 1 2 3 7 3l236 0c-5-13-5-29-5-46c1-21 1-44-9-55z m31 55c0 18 0 37 6 43c1 1 3 3 7 3c4 0 8-1 10-3c4-4 4-14 4-24c-1-12-1-26 5-37l-32 0c0 6 0 12 0 18z m87-13c-5-5-9-5-10-5c-11 0-19 2-23 6c-6 6-6 19-6 31c0 14 0 29-10 39c-6 6-14 9-25 9l-146 0c21 119 19 301 19 309c0 0 1 22 11 22l238 0c-3-8-4-16-5-22c3-93 0-345-43-389z m65 357c0 16 0 27 0 32c0 0 1 20 10 22l0 0c6-4 10-28 11-54z"/>
<glyph unicode="&#124;" d="M461 17l-55 72l0 94c0 36-21 52-52 78c-4 3-8 7-12 11l0 48c0 24-20 43-43 43l-149 0c-24 0-43-19-43-43l0-235c0-23 19-42 43-42l152 0c2-8 6-16 11-23l11-16c2-2 5-4 8-4c3 0 5 1 7 2c4 3 6 10 2 15l-11 15c-6 9-10 20-10 31l0 33l-2 6l-48 69l-1 2c-5 5-5 12 0 17c5 4 12 4 17 0l59-59c4-4 11-4 15 0c4 4 4 11 0 15l-18 18l0 80c29-24 42-36 42-61l0-98l2-6l59-75c2-3 5-4 8-4c2 0 5 1 7 2c4 4 5 11 1 15z m-160 188c-13 13-34 13-47 0c-13-13-13-33-1-46l46-66l0-29l-149 0c-12 0-22 10-22 21l0 235c0 12 10 21 22 21l149 0c12 0 21-9 21-21l0-134z m-137 175c16 16 37 25 60 25c23 0 44-9 61-25l15 15c-20 21-47 32-76 32c-28 0-55-11-75-32z m166 46c-58 58-153 58-211 0l15-15c50 49 131 49 181 0z m15 15l15 15c-75 75-197 75-272 0l16-15c66 66 174 66 241 0z m-153-153c0-6-5-11-10-11c-6 0-11 5-11 11c0 6 5 11 11 11c5 0 10-5 10-11z m43 0c0-6-5-11-11-11c-6 0-10 5-10 11c0 6 4 11 10 11c6 0 11-5 11-11z m43 0c0-6-5-11-11-11c-6 0-11 5-11 11c0 6 5 11 11 11c6 0 11-5 11-11z m-86-43c0-6-5-10-10-10c-6 0-11 4-11 10c0 6 5 11 11 11c5 0 10-5 10-11z m43 0c0-6-5-10-11-10c-6 0-10 4-10 10c0 6 4 11 10 11c6 0 11-5 11-11z m-43-42c0-6-5-11-10-11c-6 0-11 5-11 11c0 6 5 10 11 10c5 0 10-4 10-10z m43 0c0-6-5-11-11-11c-6 0-10 5-10 11c0 6 4 10 10 10c6 0 11-4 11-10z m-43-43c0-6-5-11-10-11c-6 0-11 5-11 11c0 6 5 11 11 11c5 0 10-5 10-11z m43 0c0-6-5-11-11-11c-6 0-10 5-10 11c0 6 4 11 10 11c6 0 11-5 11-11z m-43-43c0-6-5-10-10-10c-6 0-11 4-11 10c0 6 5 11 11 11c5 0 10-5 10-11z m43 0c0-6-5-10-11-10c-6 0-10 4-10 10c0 6 4 11 10 11c6 0 11-5 11-11z m43 128c0-6-5-10-11-10c-6 0-11 4-11 10c0 6 5 11 11 11c6 0 11-5 11-11z"/>
<glyph unicode="&#125;" d="M469 512l-426 0c-24 0-43-19-43-43l0-426c0-24 19-43 43-43l426 0c24 0 43 19 43 43l0 426c0 24-19 43-43 43z m22-469c0-12-10-22-22-22l-426 0c-12 0-22 10-22 22l0 426c0 12 10 22 22 22l426 0c12 0 22-10 22-22z m-96 256l-22 0l0 138c0 6-4 11-10 11c-6 0-11-5-11-11l0-138l-21 0c-6 0-11-5-11-11l0-43c0-6 5-10 11-10l21 0l0-32c0-6 5-11 11-11c6 0 10 5 10 11l0 32l22 0c6 0 10 4 10 10l0 43c0 6-4 11-10 11z m-11-43l-43 0l0 21l43 0z m-96 149l-21 0l0 32c0 6-5 11-11 11c-6 0-11-5-11-11l0-32l-21 0c-6 0-11-4-11-10l0-43c0-6 5-11 11-11l21 0l0-138c0-6 5-11 11-11c6 0 11 5 11 11l0 138l21 0c6 0 11 5 11 11l0 43c0 6-5 10-11 10z m-11-42l-42 0l0 21l42 0z m-96-22l-21 0l0 96c0 6-5 11-11 11c-6 0-10-5-10-11l0-96l-22 0c-6 0-10-4-10-10l0-43c0-6 4-11 10-11l22 0l0-74c0-6 4-11 10-11c6 0 11 5 11 11l0 74l21 0c6 0 11 5 11 11l0 43c0 6-5 10-11 10z m-10-42l-43 0l0 21l43 0z m192-150c-24 0-43-19-43-42c0-24 19-43 43-43c23 0 42 19 42 43c0 23-19 42-42 42z m0-64c-12 0-22 10-22 22c0 11 10 21 22 21c11 0 21-10 21-21c0-12-10-22-21-22z m-107 64c-24 0-43-19-43-42c0-24 19-43 43-43c24 0 43 19 43 43c0 23-19 42-43 42z m0-64c-12 0-21 10-21 22c0 11 9 21 21 21c12 0 21-10 21-21c0-12-9-22-21-22z m-107 64c-23 0-42-19-42-42c0-24 19-43 42-43c24 0 43 19 43 43c0 23-19 42-43 42z m0-64c-11 0-21 10-21 22c0 11 10 21 21 21c12 0 22-10 22-21c0-12-10-22-22-22z"/>
<glyph unicode="&#126;" d="M480 309l-40 0c-4 14-9 27-16 40l28 28c6 6 9 14 9 22c0 9-3 17-9 23l-30 30c-12 12-33 12-45 0l-28-28c-13 7-26 12-40 16l0 40c0 18-14 32-32 32l-42 0c-18 0-32-14-32-32l0-40c-14-4-27-9-40-16l-28 28c-12 12-33 12-45 0l-30-30c-13-13-13-33 0-45l28-28c-7-13-12-26-16-40l-40 0c-9 0-17-3-23-9c-6-6-9-14-9-23l0-42c0-18 14-32 32-32l40 0c4-14 9-27 16-40l-28-28c-6-6-10-14-10-22c0-9 4-17 10-23l30-30c12-12 33-12 45 0l28 28c13-7 26-12 40-16l0-40c0-18 14-32 32-32l42 0c18 0 32 14 32 32l0 40c14 4 27 9 40 16l28-28c12-12 33-12 45 0l30 30c13 13 13 33 0 45l-28 28c7 13 12 26 16 40l40 0c9 0 17 3 23 9c6 6 9 14 9 23l0 42c0 18-14 32-32 32z m11-74c0-3-1-6-3-8c-2-2-5-3-8-3l-48 0c-5 0-9-3-10-8c-4-17-11-34-20-49c-3-4-2-9 1-13l34-34c4-4 4-11 0-15l-30-30c-4-4-11-4-15 0l-34 34c-4 3-9 4-13 1c-15-9-32-16-49-20c-5-1-8-5-8-10l0-48c0-6-5-11-11-11l-42 0c-6 0-11 5-11 11l0 48c0 5-3 9-8 10c-17 4-34 11-49 20c-1 2-3 2-5 2c-3 0-6-1-8-3l-34-34c-4-4-11-4-15 0l-30 30c-2 2-3 5-3 8c0 2 1 5 3 7l34 34c3 4 4 9 1 13c-9 15-16 32-20 49c-1 5-5 8-10 8l-48 0c-6 0-11 5-11 11l0 42c0 3 1 6 3 8c2 2 5 3 8 3l48 0c5 0 9 3 10 8c4 17 11 34 20 49c3 4 2 9-1 13l-34 34c-4 4-4 11 0 15l30 30c4 4 11 4 15 0l34-34c4-3 9-4 13-1c15 9 32 16 49 20c5 1 8 5 8 10l0 48c0 6 5 11 11 11l42 0c6 0 11-5 11-11l0-48c0-5 3-9 8-10c17-4 34-11 49-20c4-3 9-2 13 1l34 34c4 4 11 4 15 0l30-30c2-2 3-5 3-8c0-2-1-5-3-7l-34-34c-3-4-4-9-1-13c9-15 16-32 20-49c1-5 5-8 10-8l48 0c6 0 11-5 11-11z m-235 128c-59 0-107-48-107-107c0-59 48-107 107-107c59 0 107 48 107 107c0 59-48 107-107 107z m0-192c-47 0-85 38-85 85c0 47 38 85 85 85c47 0 85-38 85-85c0-47-38-85-85-85z"/>
<glyph unicode="&#92;" d="M478 94l-90 91l15 15c4 4 4 11 0 15c-4 4-11 4-15 0l-38-38l-56 56l70 71c10-4 20-5 31-5c25 0 49 10 68 28c27 28 35 69 20 105c-1 3-4 6-8 6c-3 1-7 0-9-3l-38-37l-30 0l0 30l37 38c3 2 4 6 3 9c0 4-3 7-6 8c-12 5-24 8-37 8c-26 0-50-10-68-28c-26-27-35-64-23-99l-71-70l-110 111l7 7c2 2 3 5 3 8c0 2-1 5-3 7l-60 61c-4 4-11 4-15 0l-31-31c-2-2-3-4-3-7c0-3 1-6 3-8l61-60c2-2 5-3 7-3c3 0 6 1 8 3l7 7l111-110l-70-71c-10 4-20 5-31 5c-25 0-49-10-68-28c-27-28-35-69-20-105c1-3 4-6 8-6c3-1 7 0 9 2l38 38l30 0l0-30l-38-38c-2-2-3-6-2-9c0-4 3-7 6-8c12-5 24-8 37-8c26 0 50 10 68 28c26 26 35 64 23 99l71 70l56-56l-38-38c-4-4-4-11 0-15c2-2 5-3 8-3c2 0 5 1 7 3l15 15l91-90c8-8 19-13 30-13c11 0 22 5 30 13c8 8 13 19 13 30c0 11-5 22-13 30z m-386 311l-45 45l15 15l45-45z m94-259c12-28 6-60-16-82c-14-14-33-21-53-21c-4 0-9 0-13 1l28 28c2 2 4 5 4 8l0 45c0 6-5 10-11 10l-45 0c-3 0-6-1-8-3l-28-28c-4 24 3 48 21 66c14 14 32 22 52 22c10 0 20-2 29-6c4-2 9-1 12 2l166 166c3 3 4 7 2 11c-12 29-6 61 16 82c14 14 33 22 53 22c4 0 8 0 13-1l-28-28c-2-2-4-5-4-8l0-45c0-6 5-11 11-11l45 0c3 0 6 2 8 4l28 28c4-24-3-49-21-66c-14-14-32-22-52-22c-10 0-20 2-29 6c-4 2-9 1-12-2l-166-166c-3-3-4-8-2-12z m277-97c-8-8-22-8-30 0l-91 90l31 31l90-91c4-4 6-9 6-15c0-6-2-11-6-15z"/>
<glyph unicode="&#57344;" d="M503 43l-490 0c-6 0-11 4-11 10l0 150c0 17 14 32 32 32l21 0c6 0 11-5 11-11c0-7 28-21 64-21c44 0 64 12 64 21c0 3 2 7 4 9c3 2 7 2 10 1l285-102c12-4 21-16 21-30l0-49c0-6-5-10-11-10z m-480 21l470 0l0 38c0 5-3 9-8 10l-273 98c-10-18-40-29-82-29c-35 0-73 12-83 32l-13 0c-6 0-11-4-11-10z m-10 43l490 0l0-22l-490 0z m224 64c-3 0-6 1-8 3c-4 4-4 11 0 15l23 23c4 4 11 4 15 0c4-4 4-11 0-15l-23-23c-2-2-5-3-7-3z m42-11c-3 0-5 1-7 3c-5 4-5 11 0 15l19 20c4 4 11 4 15 0c5-4 5-11 0-15l-19-20c-2-2-5-3-8-3z m-10-64l-22 0l0 11c0 23 19 42 43 42l64 0c5 0 11 8 11 14l21 0c0-17-13-35-32-35l-64 0c-12 0-21-10-21-21z m-192-11c-6 0-11 5-11 11c0 29-24 53-53 53c-6 0-11 5-11 11c0 6 5 11 11 11c41 0 74-34 74-75c0-6-5-11-10-11z m234 192c-1 0-2 1-3 1l-285 102c-13 4-21 16-21 30l0 49c0 6 5 10 11 10l490 0c6 0 11-4 11-10l0-150c0-17-14-32-32-32l-21 0c-6 0-11 5-11 11c0 7-28 21-64 21c-44 0-64-12-64-21c0-3-2-7-5-9c-1-1-4-2-6-2z m158 22l13 0c6 0 11 4 11 10l0 139l-470 0l0-38c0-5 3-9 7-10l274-98c10 18 40 29 82 29c35 0 73-12 83-32z m-456 128l490 0l0-22l-490 0z m243-130c-2 0-5 1-7 3c-4 4-4 11 0 15l23 23c4 4 11 4 15 0c4-4 4-11 0-15l-23-23c-2-2-5-3-8-3z m-39 14c-3 0-6 1-8 3c-4 4-4 11 0 15l20 20c4 4 11 4 15 0c4-4 4-11 0-15l-20-20c-2-2-4-3-7-3z m-66 38l-21 0c0 17 13 35 32 35l64 0c12 0 21 10 21 21l0 11l22 0l0-11c0-23-20-42-43-42l-64 0c-5 0-11-8-11-14z m352-8c-41 0-74 34-74 75c0 6 4 11 10 11c6 0 11-5 11-11c0-29 24-53 53-53c6 0 11-5 11-11c0-6-5-11-11-11z"/>
<glyph unicode="&#57345;" d="M501 512l-320 0c-6 0-10-5-10-11l0-85c0-6 4-11 10-11c6 0 11 5 11 11l0 75l299 0l0-171l-64 0c-3 0-6-1-8-3l-67-67l0 59c0 6-5 11-11 11l-42 0c-6 0-11-5-11-11c0-6 5-10 11-10l32 0l0-75c0-4 2-8 6-10c2 0 3-1 4-1c3 0 6 1 8 3l82 83l70 0c6 0 11 4 11 10l0 192c0 6-5 11-11 11z m-200-412l-78 28l0 36c25 20 40 53 40 91c0 61-42 112-94 112c-53 0-95-51-95-112c0-40 17-75 44-94l0-33l-77-28c-25-9-41-32-41-58l0-42l341 0l0 42c0 26-16 49-40 58z m-132 245c35 0 64-31 72-71c-23-4-37 3-50 27l-10 17l-9-17c-7-14-33-27-54-27c-8 0-14 1-21 3c9 39 37 68 72 68z m-74-90c0 0 0 1 0 1c7-2 15-3 23-3c23 0 48 10 63 25c13-18 29-27 49-27c4 0 8 1 12 1c-1-48-34-88-73-88c-41 0-74 41-74 91z m225-234l-299 0l0 21c0 17 11 32 27 38l91 33l0 36c9-4 19-6 30-6c11 0 23 3 33 8l0-38l92-33c15-6 26-21 26-38z m85 374c0-6-4-11-10-11c-6 0-11 5-11 11c0 6 5 10 11 10c6 0 10-4 10-10z m-53 0c0-6-5-11-11-11c-6 0-10 5-10 11c0 6 4 10 10 10c6 0 11-4 11-10z m-53 0c0-6-5-11-11-11c-6 0-11 5-11 11c0 6 5 10 11 10c6 0 11-4 11-10z"/>
<glyph unicode="&#57346;" d="M459 171l-104 0c-70 48-38 119-12 177c11 24 20 42 20 57c0 70-54 106-107 106c-53 0-107-36-107-106c0-15 9-34 20-57c26-58 58-128-12-177l-104 0c-29 0-53-24-53-54l0-64c0-6 5-10 11-10l10 0l0-32c0-6 5-11 11-11l448 0c6 0 11 5 11 11l0 32l10 0c6 0 11 4 11 10l0 64c0 30-24 54-53 54z m10-150l-426 0l0 22l426 0z m22 43l-470 0l0 53c0 18 15 32 32 32l107 0c2 0 4 1 6 2c89 59 49 147 22 205c-9 20-17 39-17 49c0 58 44 85 85 85c41 0 85-27 85-85c0-10-8-29-17-48c-27-59-66-147 22-206c2-1 4-2 6-2l107 0c17 0 32-14 32-32z"/>
<glyph unicode="&#57347;" d="M469 384l-128 0l0 53c0 18-14 32-32 32l-106 0c-18 0-32-14-32-32l0-53l-128 0c-24 0-43-19-43-43l0-277c0-24 19-43 43-43l426 0c24 0 43 19 43 43l0 277c0 24-19 43-43 43z m-266 64l106 0c6 0 11-5 11-11l0-10l-128 0l0 10c0 6 5 11 11 11z m-11-43l128 0l0-21l-128 0z m299-341c0-12-10-21-22-21l-426 0c-12 0-22 9-22 21l0 277c0 12 10 22 22 22l426 0c12 0 22-10 22-22z m-64 235l-352 0c-6 0-11-5-11-11c0-6 5-11 11-11l352 0c6 0 10 5 10 11c0 6-4 11-10 11z m0-86l-352 0c-6 0-11-4-11-10c0-6 5-11 11-11l352 0c6 0 10 5 10 11c0 6-4 10-10 10z m0-85l-352 0c-6 0-11-5-11-11c0-6 5-10 11-10l352 0c6 0 10 4 10 10c0 6-4 11-10 11z"/>
<glyph unicode="&#57348;" d="M150 298c3 5 1 12-4 15c-4 3-11 2-14-3l-43-66c-2 35 6 71 25 102c24 38 62 66 106 76c61 15 125-6 167-53c4-4 11-5 15-1c5 4 5 11 1 15c-47 53-119 76-188 60c-50-12-92-42-119-86c-20-33-30-71-28-109l-47 54c-4 4-11 5-15 1c-4-4-5-11-1-15l70-81c0 0 0 0 0 0c1-1 2-1 3-2c0 0 0 0 1-1c1 0 2 0 4 0c0 0 0 0 0 0c0 0 0 0 1 0c0 0 0 0 0 0c0 0 1 0 1 0c1 0 2 0 2 1c1 0 1 0 2 0c1 1 2 2 2 3c1 0 1 0 1 0z m358-104l-60 88c0 1 0 1 0 1c-1 1-2 2-3 2c0 1-1 1-1 1c-1 0-2 1-3 1c0 0-1 0-1 0c0 0-1 0-2 0c0 0 0 0 0 0c0 0 0 0 0 0c-1 0-2-1-4-1c0 0 0 0 0 0c-1-1-2-2-3-3l-68-82c-4-4-3-11 1-15c5-3 12-3 15 2l51 60c-4-75-56-140-131-158c-58-14-117 3-160 45c-4 4-11 4-15-1c-4-4-4-10 0-15c37-36 85-55 135-55c15 0 30 2 45 5c82 20 140 90 147 172l39-59c2-3 6-5 9-5c2 0 4 1 6 2c5 3 6 10 3 15z"/>
<glyph unicode="&#57349;" d="M441 390c-46 49-108 76-174 79l0 32c0 6-5 11-11 11c-6 0-11-5-11-11l0-32c-66-3-128-30-174-79c-49-51-74-117-71-188c1-6 5-10 11-10c6 0 11 5 11 11c0 0 0 12 9 21c7 7 18 11 33 11c44 0 53-34 54-35c1-5 5-8 10-8c5 0 9 3 10 8c0 0 9 35 54 35c40 0 51-28 53-34l0-158c0-23 19-35 38-35c18 0 37 12 37 35c0 6-5 10-11 10c-6 0-10-4-10-10c0-13-15-14-16-14c-2 0-16 1-16 14l0 157c4 8 22 35 53 35c35 0 54-37 54-37c2-4 6-6 10-6c0 0 0 0 0 0c4 0 8 2 10 6c0 0 19 37 54 37c33 0 42-33 43-35c1-5 5-8 10-8c0 0 1 0 1 0c5 1 9 5 10 10c3 71-22 137-71 188z m7-134c-32 0-53-20-64-34c-11 14-32 34-64 34c-30 0-51-18-62-32c-11 16-32 32-66 32c-33 0-53-15-64-30c-11 15-31 30-64 30c-16 0-30-4-41-11c7 49 29 94 63 131c45 46 105 72 170 72c65 0 125-26 170-72c35-38 57-85 63-135c-10 9-23 15-41 15z"/>
<glyph unicode="&#57350;" d="M416 351c5 0 10 4 10 10l0 30c0 6-5 10-10 10l-24 0l0 9c0 9-7 16-16 16l-274 0c-9 0-16-7-16-16l0-308c0-9 7-16 16-16l274 0c9 0 16 7 16 16l0 9l24 0c5 0 10 5 10 10l0 30c0 6-5 11-10 11l-24 0l0 29l24 0c5 0 10 4 10 10l0 30c0 6-5 11-10 11l-24 0l0 29l24 0c5 0 10 4 10 10l0 30c0 6-5 10-10 10l-24 0l0 30l24 0z m-97-165c0-6-4-11-9-11l-142 0c-5 0-10 5-10 11l0 44c0 4 3 8 6 10l56 26c-13 8-22 24-22 42c0 27 18 48 41 48c23 0 41-21 41-48c0-18-9-34-21-42l55-26c3-2 5-6 5-10l0-44z"/>
<glyph unicode="&#57351;" d="M467 95l0 0l-1 2c0 0-1 1-1 2l-193 334c-3 5-9 9-16 9c-8 0-14-4-17-11l0 0l-191-331l0 0c-3-4-4-8-4-12c0-10 8-18 18-18l388 0c10 0 18 8 18 18c0 3 0 5-1 7z m-211 9c-15 0-26 12-26 27c0 14 11 26 26 26c15 0 26-12 26-26c0-15-11-27-26-27z m26 233l0-145l0 0c0 0 0 0 0 0c0-6-4-11-10-11c0 0 0 0 0 0l0 0l-32 0c-6 0-10 5-10 11c0 0 0 0 0 0l0 0l0 144c0 0 0 1 0 1c0 5 4 10 9 10l0 0l33 0l0 0c6 0 10-4 10-10l0 0l0 0c0 0 0 0 0 0z"/>
<glyph unicode="&#57352;" d="M416 434l-320 0c-10 0-17-7-17-17l0-16c0-10 7-17 17-17l320 0c10 0 17 7 17 17l0 16c0 10-7 17-17 17z m-26-135l0 16c0 10-8 17-17 17l-234 0c-9 0-17-7-17-17l0-16c0-10 8-17 17-17l234 0c9 0 17 7 17 17z m8-171l-284 0c-10 0-18-7-18-17l0-16c0-10 8-17 18-17l284 0c10 0 18 7 18 17l0 0l0 16l0 0c0 10-8 17-18 17z m-25 85c0 10-8 17-18 17l-198 0c-10 0-18-7-18-17l0-16c0-10 8-17 18-17l198 0c10 0 18 7 18 17c0 0 0 0 0 0z"/>
<glyph unicode="&#57353;" d="M416 433l-320 0c-10 0-17-8-17-17l0-16c0-10 7-18 17-18l320 0c10 0 17 8 17 18l0 16c0 9-7 17-17 17z m0-101l-320 0c-10 0-17-8-17-17l0-16c0-10 7-18 17-18l320 0c10 0 17 8 17 18l0 16c0 9-7 17-17 17z m0-101l-320 0c-10 0-17-8-17-18l0-16c0-9 7-17 17-17l320 0c10 0 17 8 17 17l0 16c0 10-7 18-17 18z m0-101l-320 0c-10 0-17-8-17-18l0-16c0-9 7-17 17-17l320 0c10 0 17 8 17 17l0 16c0 10-7 18-17 18z"/>
<glyph unicode="&#57354;" d="M416 434l-320 0c-10 0-17-7-17-17l0-16c0-10 7-17 17-17l320 0c10 0 17 7 17 17l0 16c0 10-7 17-17 17z m-320-152l234 0c9 0 17 7 17 17l0 16c0 10-8 18-17 18l-234 0c-10 0-17-8-17-18l0-16c0-10 7-17 17-17z m285-154l-285 0c-10 0-17-7-17-17l0-16c0-10 7-17 17-17l285 0c10 0 17 7 17 17l0 0l0 16l0 0c0 10-7 17-17 17z m-285 52l199 0c9 0 17 7 17 17c0 0 0 0 0 0l0 16c0 10-8 17-17 17l-199 0c-10 0-17-7-17-17l0-16c0-10 7-17 17-17z"/>
<glyph unicode="&#57355;" d="M416 434l-320 0c-10 0-17-7-17-17l0-16c0-10 7-17 17-17l320 0c10 0 17 7 17 17l0 16c0 10-7 17-17 17z m0-102l-234 0c-9 0-17-7-17-17l0-16c0-10 8-17 17-17l234 0c10 0 17 7 17 17l0 16c0 10-7 17-17 17z m0-204l-285 0c-10 0-17-7-17-17l0-16c0-10 7-17 17-17l285 0c9 0 17 7 17 17l0 0l0 16l0 0c0 10-8 17-17 17z m17 85c0 10-7 17-17 17l-199 0c-9 0-17-7-17-17l0-16c0-10 8-17 17-17l199 0c10 0 17 7 17 17c0 0 0 0 0 0z"/>
<glyph unicode="&#57356;" d="M452 168l0 0l-49 84l0 0c-1 2-4 4-7 4c-3 0-6-2-7-5l-47-82c-1-1-2-3-2-5c0-4 4-8 8-8l12 0c-20-22-47-38-79-44l0 150l47 0c4 0 8 3 8 8l0 0l0 35c0 0 0 0 0 0c0 4-4 8-8 8l-47 0l0 27c20 10 34 30 34 54c0 32-26 59-59 59c-33 0-59-27-59-59c0-24 14-44 34-54l0-27l-47 0c0 0 0 0 0 0c-4 0-8-4-8-8l0 0l0-35l0 0c0-5 4-8 8-8l47 0l0-150c-32 6-59 22-79 44l12 0c4 0 8 4 8 8c0 2-1 3-1 4l0 0l-48 84l0 0c-2 2-4 4-7 4c-4 0-7-2-8-5l-47-82c-1-1-2-3-2-5c0-4 4-8 8-8l22 0c33-58 95-97 167-97c72 0 134 39 167 97l22 0c4 0 8 4 8 8c0 2-1 3-1 4z m-196 192c-18 0-33 15-33 34c0 18 15 33 33 33c18 0 33-15 33-33c0-19-15-34-33-34z"/>
<glyph unicode="&#57357;" d="M422 162l0 188c17 9 28 27 28 47c0 30-24 54-53 54c-18 0-35-10-44-24l-194 0c-9 14-26 24-44 24c-29 0-53-24-53-54c0-20 11-38 28-47l0-188c-17-9-28-27-28-47c0-30 24-54 53-54c23 0 42 14 50 34l182 0c8-20 27-34 50-34c29 0 53 24 53 54c0 20-11 38-28 47z m-281 0l0 188c10 6 19 15 23 26l184 0c4-11 13-20 23-26l0-188c-7-4-13-10-18-16l-194 0c-5 6-11 12-18 16z"/>
<glyph unicode="&#57358;" d="M456 343c0 1 0 1 0 1c0 5-2 10-5 13l0 1l-40 69c-1 6-6 10-13 10c0 0 0 0-1 0l0 0l-283 0l0 0c0 0 0 0 0 0c-5 0-9-3-12-7l0 0l-42-72l0 0c-3-4-4-9-4-14c0 0 0 0 0-1l0-247c0 0 0 0 0 0c0-12 9-21 20-21c1 0 1 0 1 0l358 0c0 0 0 0 0 0c12 0 21 9 21 21c0 0 0 0 0 0l0 247z m-131-125l-64-90c-1-1-3-2-5-2c0 0 0 0 0 0c-2 0-4 1-5 2l-64 90c-1 2-1 4 0 6c1 2 3 3 5 3l30 0l0 81c0 3 3 6 6 6l56 0c3 0 6-3 6-6l0-81l30 0c2 0 4-1 5-3c1-2 1-4 0-6z m-231 147l27 47l270 0l27-47z"/>
<glyph unicode="&#57359;" d="M113 252l133-187c2-3 6-5 10-5c0 0 0 0 0 0c5 0 9 2 11 5l132 187c3 4 4 9 1 13c-2 4-6 7-11 7l-62 0l0 167c0 8-6 13-13 13l-116 0c-7 0-13-5-13-13l0-167l-62 0c-5 0-9-3-11-7c-3-4-2-10 1-13z"/>
<glyph unicode="&#57360;" d="M252 399l-187-133c-3-2-5-6-5-10c0 0 0 0 0 0c0-5 2-9 5-11l187-132c4-3 9-4 13-1c4 2 7 6 7 11l0 62l167 0c8 0 13 6 13 13l0 116c0 7-5 13-13 13l-167 0l0 62c0 5-3 9-7 11c-4 3-10 2-13-1z"/>
<glyph unicode="&#57361;" d="M260 113l187 133c3 2 5 6 5 10c0 0 0 0 0 0c0 5-2 9-5 11l-187 132c-4 3-9 4-13 1c-4-2-7-6-7-11l0-62l-167 0c-8 0-13-6-13-13l0-116c0-7 5-13 13-13l167 0l0-62c0-5 3-9 7-11c4-3 10-2 13 1z"/>
<glyph unicode="&#57362;" d="M399 260l-133 187c-2 3-6 5-10 5c0 0 0 0 0 0c-5 0-9-2-11-5l-132-187c-3-4-4-9-1-13c2-4 6-7 11-7l62 0l0-167c0-8 6-13 13-13l116 0c7 0 13 5 13 13l0 167l62 0c5 0 9 3 11 7c3 4 2 10-1 13z"/>
<glyph unicode="&#57363;" d="M201 59l26 158c0 3-1 6-3 8c0 0 0 0 0 0c-2 2-5 3-8 2l-157-26c-3-1-6-3-7-7c-1-3 0-6 2-9l31-30l-82-83c-4-3-4-9 0-13l56-56c4-4 10-4 13 0l83 82l30-31c3-2 6-3 9-2c4 1 6 4 7 7z m110 394l-26-158c0-3 1-6 3-8c0 0 0 0 0 0c2-2 5-3 8-2l157 26c3 1 6 3 7 7c1 3 0 6-2 9l-31 30l82 83c4 3 4 9 0 13l-56 56c-4 4-10 4-13 0l-83-82l-30 31c-3 2-6 3-9 2c-4-1-6-4-7-7z"/>
<glyph unicode="&#57364;" d="M26 168l-26-158c0-2 1-5 3-7c0 0 0 0 0 0c2-2 5-3 7-3l158 27c3 0 6 3 7 6c1 3 0 7-3 9l-30 31l82 82c4 4 4 9 0 13l-57 57c-3 3-9 3-12 0l-83-83l-31 31c-2 2-5 3-9 2c-3-1-5-4-6-7z m460 176l26 158c0 2-1 5-3 7c0 0 0 0 0 0c-2 2-5 3-7 3l-158-27c-3 0-6-3-7-6c-1-3 0-7 3-9l30-31l-82-82c-4-4-4-9 0-13l57-57c3-3 9-3 12 0l83 83l31-31c2-2 5-3 9-2c3 1 5 4 6 7z"/>
<glyph unicode="&#57365;" d="M184 54l24 145c1 3 0 5-2 7c0 0 0 0 0 0c-2 2-5 3-7 3l-145-25c-3 0-5-2-6-5c-1-3 0-7 2-9l28-28l-76-76c-3-3-3-8 0-11l53-53c3-3 8-3 11 0l76 76l28-28c3-2 6-3 9-2c3 1 5 3 5 6z m144 404l-24-145c-1-3 0-5 2-7c0 0 0 0 0 0c2-2 5-3 7-3l145 25c3 0 5 2 6 5c1 3 0 7-2 9l-28 28l76 76c3 3 3 8 0 11l-53 53c-3 3-8 3-11 0l-76-76l-28 28c-3 2-6 3-9 2c-3-1-5-3-5-6z m130-274l-145 24c-3 1-5 0-7-2c0 0 0 0 0 0c-2-2-3-5-3-7l25-145c0-3 2-5 5-6c3-1 7 0 9 2l28 28l76-76c3-3 8-3 11 0l53 53c3 3 3 8 0 11l-76 76l28 28c2 3 3 6 2 9c-1 3-3 5-6 5z m-404 144l145-24c3-1 5 0 7 2c0 0 0 0 0 0c2 2 3 5 3 7l-25 145c0 3-2 5-5 6c-3 1-6 0-9-2l-28-28l-76 76c-3 3-8 3-11 0l-53-53c-3-3-3-8 0-11l76-76l-28-28c-2-3-3-6-2-9c1-3 3-5 6-5z"/>
<glyph unicode="&#57366;" d="M24 154l-24-144c0-3 1-6 2-8c0 0 0 0 0 0c2-1 5-2 8-2l144 25c3 0 6 2 6 5c1 3 1 6-2 8l-28 29l76 75c3 4 3 9 0 12l-52 52c-3 4-9 4-12 0l-76-75l-28 28c-2 2-5 3-8 2c-3-1-5-4-6-7z m464 204l24 144c0 3-1 6-2 8c0 0 0 0 0 0c-2 1-5 2-8 2l-144-25c-3 0-6-2-6-5c-1-3-1-6 2-8l28-29l-76-75c-3-4-3-9 0-12l52-52c3-4 9-4 12 0l76 75l28-28c2-2 5-3 8-2c3 1 5 4 6 7z m-130-334l144-24c3 0 6 1 8 2c0 0 0 0 0 0c1 2 2 5 2 8l-25 144c0 3-2 6-5 6c-3 1-6 1-8-2l-29-28l-75 76c-4 3-9 3-12 0l-52-52c-4-3-4-9 0-12l75-76l-28-28c-2-2-3-5-2-8c1-3 4-5 7-6z m-204 464l-144 24c-3 0-6-1-8-2c0 0 0 0 0 0c-1-2-2-5-2-8l25-144c0-3 2-6 5-6c3-1 6-1 8 2l29 28l75-76c4-3 9-3 12 0l52 52c4 3 4 9 0 12l-75 76l28 28c2 2 3 5 2 8c-1 3-4 5-7 6z"/>
<glyph unicode="&#57367;" d="M130 379c2 1 4 2 5 3c17 15 36 27 58 34c12 3 24 4 36 5c2 0 5-2 6-4c1-2 1-6-1-8c-2-3-6-5-10-6c-15-5-29-9-44-14c-3-1-6-5-9-8c-7-5-14-11-21-16c-1-1-3-2-4-3c1-1 1-1 1-1c4 1 7 3 11 4c12 4 23 9 35 11c10 2 21-1 32-2c3 0 5-2 7-4c8-6 16-12 23-19c3-2 3-4 1-7c-5-6-11-8-18-4c-5 3-10 7-15 11c-3 3-6 3-9 3c-7-1-15-1-22-2c-2 0-5-1-7-2c-10-7-20-14-30-22c-2-1-2-4-3-7c1 0 2 1 3 1c8 6 17 6 26 7c3 1 6 1 9 1c11 2 20-3 29-10c7-5 14-11 21-16c4-3 6-8 6-13c0-9 1-18-3-27c0-1 0-3 0-3c6-5 2-9 1-13c-3-9-7-18-11-27c-3-8-8-14-17-16c-21-6-42-13-62-20c-9-3-17-4-26-2c-17 4-34 2-50-5c-7-3-14-7-22-11c-9 13-14 27-17 41c-4 17-4 34-2 52c0 1 2 3 3 4c17 7 25 21 30 37c7 19 10 40 22 57c13 19 23 39 40 55c9 8 15 18 23 27c3 4 5 4 8-1c3-5 3-10-2-16c-10-13-20-26-30-39c-1-1-1-3-2-4c0-1 0-1 1-1z m73-145c4 0 8-1 10 3c4 9 10 16 18 22c2 2 2 3 1 5c-4 7-7 15-11 21c-1 2-2 4-4 5c-6 4-13 8-19 12c-2 1-5 1-7 1c-4-2-9-5-14-7c-5-2-9-3-14-5c-10-4-13-14-16-23c-2-7 0-11 4-16c6-6 12-13 17-20c2-2 4-2 6-1c10 3 20 5 29 3z m178-101c-3-2-6-5-10-7c-15-14-33-24-52-30c-11-3-24-4-35-6c-7 0-11 7-7 12c3 3 7 6 11 8c13 4 26 7 38 11c5 2 9 5 13 8c8 6 16 12 23 19c2 0 3 1 3 4c-4-2-8-4-13-6c-11-4-21-9-32-10c-11-2-22 1-33 2c-2 0-5 2-7 4c-7 5-14 10-20 16c-7 5-6 12 3 15c3 1 8 1 11-1c6-3 11-8 17-12c2-1 4-2 6-2c7 0 15 1 22 2c4 0 7 1 10 3c10 7 19 14 28 21c2 1 2 4 3 7c-12-8-25-8-39-9c-9-1-16 1-23 7c-9 7-19 14-28 21c-2 2-4 6-4 8c0 9 1 18 2 27c1 3 2 6-1 9c-1 0-1 3 0 4c1 4 2 7 4 11c2 7 5 13 7 20c3 9 9 15 19 18c21 6 41 13 62 20c8 3 16 4 26 2c17-5 35-2 51 6c7 3 13 6 20 10c7-10 11-20 15-32c6-20 6-40 4-61c0-4-4-5-7-6c-10-4-16-12-21-22c-4-10-8-21-11-32c-5-15-10-29-19-43c-7-10-13-20-20-30c-6-8-13-15-19-23c-7-8-14-16-21-24c-3-4-5-4-8 1c-4 5-3 10 2 16c10 13 20 26 30 38c1 2 1 4 2 5c-1 1-1 1-2 1z m-101 117c4-8 7-16 11-24c0-2 2-3 4-4c6-4 13-8 19-12c2-2 4-2 7-1c7 4 15 7 23 9c7 3 14 7 17 15c2 4 3 9 4 13c1 5 1 9-3 13c-7 7-12 14-19 21c-1 1-3 2-4 1c-11-3-22-5-33-3c-2 0-6-1-7-3c-7-8-13-17-19-25z"/>
<glyph unicode="&#57368;" d="M422 204c0 0 0 1 0 1l0 0l-88 51l89 51l0 0c4 3 6 10 3 14c0 0 0 1 0 1l0 0l-28 49l0 0c-3 4-9 6-14 3l0 0l-89-51l0 103l0 0c0 6-5 10-11 10c0 0 0 0 0 0l0 0l-56 0l0 0c-6 0-10-5-10-10l0 0l0-103l-90 52l0 0c-5 2-11 0-14-4c0 0 0-1 0-1l0 0l-28-49l0 0c-3-4-1-10 4-13l0 0l0 0c0 0 0 0 0 0c0 0 0-1 0-1l89-51l-87-50c-1-1-2-1-2-1c-5-3-7-9-4-14l0 0l29-51l0 0c3-4 9-5 13-2c0 0 0 0 0 0l1 0l89 51l0-100c-1-1-1-2-1-3c0-5 5-10 10-10l0 0l59 0l0 0c5 1 8 5 8 10c0 0 0 0 0 0l1 0l0 103l87-50c0-1 1-1 2-1c4-3 11-2 14 3l0 0l28 49c0 0 0 0 0 0c0 0 0 0 0 0l1 2l0 0c1 5 0 10-5 12z"/>
<glyph unicode="&#57369;" d="M448 256c0 106-86 192-192 192c-106 0-192-86-192-192c0-106 86-192 192-192c34 0 66 9 94 25c3 1 5 4 5 7c0 3-2 6-4 7l0 0l-34 21l0 0c-1 1-3 2-5 2c-1 0-2 0-3-1l0 0c-17-6-34-10-53-10c-78 0-141 63-141 141c0 78 63 141 141 141c73 0 134-56 140-128c0-51-22-80-39-80c-10 0-17 7-17 21c0 2 1 8 1 11l22 101l-1 0c0 1 1 1 1 2c0 3-3 6-7 6l-37 0c-4 0-6-2-7-5l0 0l-4-18c-9 17-28 30-56 30c-52 0-102-50-102-111c0-43 26-75 70-75c24 0 49 14 65 36l0-3c4-17 51-39 78-39c39 0 85 27 85 102l0 0c0 3 0 6 0 9z m-158-35c-10-14-26-30-50-30c-23 0-37 16-37 40c0 33 26 65 62 65c20 0 32-13 36-23z"/>
<glyph unicode="&#57370;" d="M194 117l-18-45l168 0l-17 45z m14 45l104 0l-52 138z m196 278l-296 0c-20 0-36-16-36-36l0-296c0-20 16-36 36-36l10 0l107 270c2 5 7 9 13 9l45 0c6 0 11-4 12-9l0 0l107-270l2 0c20 0 36 16 36 36l0 296c0 20-16 36-36 36z"/>
<glyph unicode="&#57371;" d="M489 300l-40 0l0 87c0 5-4 9-8 9l-418 0c-5 0-9-4-9-9l0-262c0-5 4-9 9-9l418 0c4 0 8 4 8 9l0 95l40 0c5 0 9 4 9 9l0 62c0 5-4 9-9 9z m-91-133l-332 0l0 177l332 0z"/>
<glyph unicode="&#57372;" d="M489 300l-40 0l0 87c0 5-4 9-8 9l-418 0c-5 0-9-4-9-9l0-262c0-5 4-9 9-9l418 0c4 0 8 4 8 9l0 95l40 0c5 0 9 4 9 9l0 62c0 5-4 9-9 9z m-91-133l-332 0l0 177l332 0z m-307 154l282 0l0-129l-282 0z"/>
<glyph unicode="&#57373;" d="M489 300l-40 0l0 87c0 5-4 9-8 9l-418 0c-5 0-9-4-9-9l0-262c0-5 4-9 9-9l418 0c4 0 8 4 8 9l0 95l40 0c5 0 9 4 9 9l0 62c0 5-4 9-9 9z m-91-133l-332 0l0 177l332 0z m-108 152l-199 0l0-126l149 0z"/>
<glyph unicode="&#57374;" d="M339 269c19 10 31 27 28 55c-4 38-37 51-79 54l0 47c0 0 0 0 0 0c0 4-3 7-6 7l-20 0c-3 0-6-3-6-7l0 0l0-45c-9 0-17 0-26-1l0 46c0 0 0 0 0 0c0 4-3 7-6 7l-20 0c-3 0-6-3-6-7c0 0 0 0 0 0l0 0l0-47c-7 0-14 0-21 0l0 0l-45 0l0 0c-3 0-6-3-6-6l0-22c0-3 3-6 6-6c0 0 0 0 0 0l0 0c0 0 24 0 24 0c13 0 17-8 19-14l0-61l0 0l0-85c-1-4-3-11-13-11c1 0-23 0-23 0l0 0c0 0 0 0 0 0c-3 0-6-2-6-5l-1 0l-6-27l1 0c0 0-1 0-1 0c0-4 3-6 6-7l0 0l43 0c7 0 15 0 23 0l0-47l0 0c0-4 3-7 6-7l20 0c3 0 6 3 6 7l0 0l0 47c9-1 18-1 26-1l0-46l0 0c0-4 3-7 6-7l20 0c3 0 6 3 6 7c0 0 0 0 0 0l0 0l0 47c55 3 93 17 98 68c3 41-16 60-47 67z m-108 72c18 0 75 6 76-32c0-37-58-32-76-32z m0-168l0 71c22 0 91 6 91-36c0-40-69-35-91-35z"/>
<glyph unicode="&#57375;" d="M255 317l-10-42c11-3 48-15 54 9c6 25-32 30-44 33z m-16-63l-11-47c14-3 58-17 64 9c7 27-38 34-53 38z m63 188c-102 26-207-37-232-140c-26-102 37-207 140-232c102-26 207 37 232 140c26 102-37 207-140 232z m39-159c-3-18-14-27-27-31c19-9 28-25 19-51c-11-32-38-35-74-28l-9-35l-21 5l9 35c-6 1-11 2-17 4l-9-35l-21 6l9 35c-5 1-10 2-15 4l-28 6l11 24c0 0 15-4 15-3c6-2 9 2 10 5l14 55c0 0 1 0 2-1c-1 1-2 1-2 1l9 39c1 5-1 11-9 13c0 0-16 4-16 4l6 22l29-7l0 0c4-1 9-2 13-4l9 35l21-5l-8-34c5-1 11-3 17-4l8 34l21-6l-9-34c27-9 46-23 43-49z"/>
<glyph unicode="&#57376;" d="M249 411c0-20-16-37-36-37c-21 0-37 17-37 37c0 20 16 36 37 36c20 0 36-16 36-36z m177-332l0 0l-107 186c2 2 3 5 3 9c0 6-4 12-10 14l-31 18l-47 47c-6 8-17 13-28 13c-11 0-20-4-27-11l-54-55l0 0c-1 0-1-1-1-3c0 0 0 0 0 0l0 0l0-62c0 0 0 0 0 0c0-8 6-15 15-15c8 0 15 7 15 15c0 0 0 0 0 0l0 52l19 18l0-96l0 0l-36-62l-45-45l0 0c-4-4-7-10-7-16c0-12 10-21 22-21c6 0 12 3 16 8l49 49l0 0l42 72l36-37l47-81l0 0c4-7 11-11 19-11c12 0 21 9 21 21c0 5-1 9-4 13l-49 85l0 0l-44 44l0 76l22-23l0 0l0 0l1 0l0 0l35-20c0 0 0 0 0-1l1 0l0 0c2-1 4-2 7-2c1 0 2 0 3 0l107-184c0 0 0 0 0-1l0 0l0 0c1-1 3-3 5-3c3 0 6 3 6 6c0 1-1 2-1 3z"/>
<glyph unicode="&#57377;" d="M368 184l-72 72l72 71c1 1 1 2 2 3l0 0l0 0c3 3 5 8 5 14c0 6-3 12-7 16l-101 101c-4 5-10 8-17 8c-12 0-22-10-22-22c0-2 1-4 1-6l0-119l-55 55c-4 5-9 7-16 7c-12 0-21-9-21-22c0-6 2-12 7-15l85-86l0-11l-86-86c0 0 0 0 0 0l0 0l0 0c-4-4-6-10-6-15c0-12 9-22 21-22c7 0 13 3 17 7l54 55l0-124c0 0 0 0 0 0c0-1 0-1 0-1l0 0l0 0c1-12 10-21 22-21c6 0 12 3 16 7l0 0l102 102c0 0 0 0 0 0l1 1l0 0c3 4 5 9 5 14c0 7-3 13-7 17z m-45-17l-50-50l0 101z m-50 127l0 100l50-50z"/>
<glyph unicode="&#57378;" d="M321 261c28 5 50 30 50 66c0 39-28 74-83 74l-139 0c-8 0-14-6-14-13l0-264c0-7 6-13 14-13l144 0c55 0 84 35 84 79c0 36-25 66-56 71z m-124 86l77 0c21 0 34-13 34-31c0-18-13-30-34-30l-77 0z m80-182l-80 0l0 66l80 0c24 0 37-14 37-33c0-20-14-33-37-33z"/>
<glyph unicode="&#57379;" d="M420 398l0 0c0 4-4 8-8 8l0 0l-17 0l0-309l0 0c0-5-4-9-9-9l0 0l-260 0c-4 0-8 3-9 7l0 19l243 0l0 0c0 0 0 0 0 0c5 0 9 4 9 8c0 0 0 0 0 0l0 319c0 4-4 8-9 8c0 0 0 0 0 0l0 0l-260 0c-4 0-8-4-8-8c0 0 0 0 0-1l0-368c0-1 0-1 0-1c0 0 0 0 0 0l0 0l0 0c0-5 4-8 8-8l0 0l312 0l0 0l0 0c4 0 8 4 8 8l0 0z m-303-8c0 4 4 8 9 8l209 0c5 0 8-4 8-8l0-64l0 0c0-4-3-8-8-8l-209 0c-5 0-9 4-9 8l0 64c0 0 0 0 0 0z"/>
<glyph unicode="&#57380;" d="M420 398l0 0c0 4-4 8-8 8l0 0l-17 0l0-309l0 0c0-5-4-9-9-9l0 0l-260 0c-4 0-8 3-9 7l0 19l243 0l0 0c0 0 0 0 0 0c5 0 9 4 9 8c0 0 0 0 0 0l0 319c0 4-4 8-9 8c0 0 0 0 0 0l0 0l-29 0l0-179c0-2-2-4-4-4c-1 0-3 1-3 2l-29 29l0 0c-1 0-2 1-3 1c-1 0-2-1-3-1l0 0l-29-30l0 0c-1 0-2-1-3-1c-2 0-4 2-4 4l0 179l-153 0c-4 0-8-4-8-8c0 0 0 0 0-1l0-368c0-1 0-1 0-1c0 0 0 0 0 0l0 0l0 0c0-5 4-8 8-8l0 0l312 0l0 0l0 0c4 0 8 4 8 8l0 0z"/>
<glyph unicode="&#57381;" d="M350 445l-188 0c-8 0-15-7-15-16l0-351c0-6 5-11 11-11c3 0 6 1 8 3l0 0l82 83l1 0c1 2 4 3 7 3c3 0 6-1 8-3l0 0l81-82c2-2 5-4 9-4c6 0 11 5 11 11l0 351c0 9-7 16-15 16z"/>
<glyph unicode="&#57382;" d="M195 389c0-20-16-36-36-36c-19 0-35 16-35 36c0 20 16 36 35 36c20 0 36-16 36-36z m193 0c0-20-16-36-35-36c-20 0-36 16-36 36c0 20 16 36 36 36c19 0 35-16 35-36z m-193-133c0-20-16-36-36-36c-19 0-35 16-35 36c0 20 16 36 35 36c20 0 36-16 36-36z m193 0c0-20-16-36-35-36c-20 0-36 16-36 36c0 20 16 36 36 36c19 0 35-16 35-36z m-193-133c0-20-16-36-36-36c-19 0-35 16-35 36c0 20 16 36 35 36c20 0 36-16 36-36z m193 0c0-20-16-36-35-36c-20 0-36 16-36 36c0 20 16 36 36 36c19 0 35-16 35-36z"/>
<glyph unicode="&#57383;" d="M453 256c0 5-2 9-5 11l0 0l-48 28l28 47l0 1c1 3 1 8-1 12c-2 4-6 6-10 7l0 0l-56 0l0 55l0 0c0 4-3 8-6 10c-4 2-9 2-13 1l0 0l-48-28l-27 46l0 0c-3 4-7 6-11 6c-5 0-9-2-11-6l-1 0l-27-47l-47 27l0 0c-4 2-8 2-12-1c-4-2-7-6-7-10l0 0l0-55l-55 0l0 0c-4 0-8-2-10-6c-2-4-2-9-1-13l0 0l27-46l-48-28l0 0c-3-3-5-7-5-11c0-5 2-9 5-11l0 0l48-28l-28-48l0 0c-1-3-1-8 1-12c2-4 6-6 11-7l0 0l55 0l0-55l0 0c0-4 3-8 6-10c4-2 9-2 13-1l0 0l48 28l27-46l0 0c3-4 7-6 11-6c5 0 9 2 11 6l1 0l27 47l47-27l0 0c4-2 8-2 12 1c4 2 7 6 7 10l0 0l0 55l55 0l0 0c4 0 8 2 10 6c2 4 2 9 1 13l0 0l-27 46l48 28l0 0c3 3 5 7 5 11z"/>
<glyph unicode="&#57384;" d="M453 256c0 5-2 9-5 11l0 0l-48 28l28 47l0 1c1 3 1 8-1 12c-2 4-6 6-10 7l0 0l-56 0l0 55l0 0c0 4-3 8-6 10c-4 2-9 2-13 1l0 0l-48-28l-27 46l0 0c-3 4-7 6-11 6c-5 0-9-2-11-6l-1 0l-27-47l-47 27l0 0c-4 2-8 2-12-1c-4-2-7-6-7-10l0 0l0-55l-55 0l0 0c-4 0-8-2-10-6c-2-4-2-9-1-13l0 0l27-46l-48-28l0 0c-3-3-5-7-5-11c0-5 2-9 5-11l0 0l48-28l-28-48l0 0c-1-3-1-8 1-12c2-4 6-6 11-7l0 0l55 0l0-55l0 0c0-4 3-8 6-10c4-2 9-2 13-1l0 0l48 28l27-46l0 0c3-4 7-6 11-6c5 0 9 2 11 6l1 0l27 47l47-27l0 0c4-2 8-2 12 1c4 2 7 6 7 10l0 0l0 55l55 0l0 0c4 0 8 2 10 6c2 4 2 9 1 13l0 0l-27 46l48 28l0 0c3 3 5 7 5 11z m-229-58l-51 22l23-38l-13-8l-34 59l13 8l49-21l-22 37l13 7l34-59z m24 14l-34 59l41 24l7-11l-29-17l7-13l28 17l7-11l-29-17l8-13l29 17l6-11z m96 55l-33 35l13-46l-14-8l-51 49l14 8l36-36l-14 49l10 5l36-36l-15 49l15 8l17-69z"/>
</font>
</defs>
</svg>
